Guayacan Orquesta - ExtraampAtildeampplusmno Tu Amor (h264mp4)

Size 61.821 MB   2 seeders     Added 2012-02-20 08:57:03

Stream torrent
Starting‥ You need BitLord! Get it from BitLord.com
To download or stream you need BitLord. Visit them at BitLord.com
General
Format : MPEG-4
Format profile : Base Media
Codec ID : isom
File size : 59.0 MiB
Duration : 4mn 40s
Overall bit rate : 1 760 Kbps
Encoded date : UTC 2012-02-18 16:58:16
Tagged date : UTC 2012-02-18 16:58:16
Video
ID : 1
Format : AVC
Format/Info : Advanced Video Codec
Format profile : High@L3.0
Format settings, CABAC : Yes
Format settings, ReFrames : 2 frames
Codec ID : avc1
Codec ID/Info : Advanced Video Coding
Duration : 4mn 40s
Bit rate mode : Variable
Bit rate : 1 676 Kbps
Maximum bit rate : 15.2 Mbps
Width : 720 pixels
Height : 480 pixels
Display aspect ratio : 16:9
Original display aspect ratio : 16:9
Frame rate mode : Constant
Frame rate : 23.976 fps
Standard : NTSC
Color space : YUV
Chroma subsampling : 4:2:0
Bit depth : 8 bits
Scan type : Progressive
Bits/(Pixel*Frame) : 0.202
Stream size : 56.4 MiB (96%)
Audio
ID : 2
Format : AAC
Format/Info : Advanced Audio Codec
Format profile : LC
Codec ID : 40
Duration : 4mn 40s
Bit rate mode : Variable
Bit rate : 70.5 Kbps
Maximum bit rate : 84.3 Kbps
Channel(s) : 2 channels
Channel positions : Front: L R
Sampling rate : 44.1 KHz
Compression mode : Lossy
Stream size : 2.36 MiB (4%)
 
GuayacanOrquesta-ExtranoTuAmor-musicvideos-hq.net.mp4 61.821 MB
Gathering some info...

Register and log in Isohunt and see no captcha anymore!

4000 symbols left
Hash 71DF6D1317AF54E716F1407ABD2AAFE58B2FE1B8