Durham County

Durham County (2007)

Drama

Full description

Durham County 2007 Serie 2DVDrip 6 Parts English Klam

Size 3.93 GB   0 seeders     Added 2012-02-20 09:05:00

Stream torrent
Starting‥ You need BitLord! Get it from 1BitLord.com
To download or stream you need BitLord. Visit them at BitLord.com
[img] image[/img]\r\n\r\nNadat zijn partner is vermoord, verhuist rechercheur Mike Sweeney met zijn gezin naar het kleine stadje waar hij opgroeide. Maar onder de landelijke rust van Durham County gaan duistere geheimen schuil.\r\n\r\nThey say there's only six degrees of separation between you and anyone else in the world, but sometimes it's not even that...\r\n\r\nhttp://www.imdb.com/title/tt0885761\r\n\r\n[COLOR=#3300FF]------------------------ Dutch Friends ------------------------\r\n---------------------------------------------------------------\r\n- Bezoek ook eens mijn vrienden op:  http://www.Film-Test.nl --\r\n----- voor mijn Nederlandse Sync. ondertitels ---- en meer ----\r\n------- http://www.Film-Test.nl ---- voor Films en meer -------\r\n---------------------------------------------------------------[/COLOR]\r\n\r\nGeneral:\r\n\r\nComplete name                    : Durham County\\01Part01.avi\r\nFormat                           : AVI\r\nFormat/Info                      : Audio Video Interleave\r\nFile size                        : 665 MiB\r\nDuration                         : 45mn 37s\r\nOverall bit rate                 : 2 039 Kbps\r\n\r\nVideo:\r\n\r\nFormat                           : MPEG-4 Visual\r\nFormat profile                   : Simple@L3\r\nFormat settings, BVOP            : No\r\nFormat settings, QPel            : No\r\nFormat settings, GMC             : No warppoints\r\nFormat settings, Matrix          : Default (H.263)\r\nCodec ID                         : XVID\r\nCodec ID/Hint                    : XviD\r\nDuration                         : 45mn 37s\r\nBit rate                         : 1 804 Kbps\r\nWidth                            : 652 pixels\r\nHeight                           : 352 pixels\r\nDisplay aspect ratio             : 1.852\r\nFrame rate                       : 25.000 fps\r\nColor space                      : YUV\r\nChroma subsampling               : 4:2:0\r\nBit depth                        : 8 bits\r\nScan type                        : Progressive\r\nCompression mode                 : Lossy\r\nBits/(Pixel*Frame)               : 0.314\r\nStream size                      : 589 MiB (88%)\r\nWriting library                  : XviD 1.1.2 (UTC 2006-11-01)\r\n\r\nAudio:\r\n\r\nFormat                           : AC-3\r\nFormat/Info                      : Audio Coding 3\r\nMode extension                   : CM (complete main)\r\nCodec ID                         : 2000\r\nDuration                         : 45mn 36s\r\nBit rate mode                    : Constant\r\nBit rate                         : 224 Kbps\r\nChannel(s)                       : 2 channels\r\nChannel positions                : Front: L R\r\nSampling rate                    : 48.0 KHz\r\nBit depth                        : 16 bits\r\nCompression mode                 : Lossy\r\nStream size                      : 73.1 MiB (11%)\r\nAlignment                        : Aligned on interleaves\r\nInterleave, duration             : 32 ms (0.80 video frame)\r\nInterleave, preload duration     : 32 ms
01Part01.avi 697.695 MB
02Part02.avi 670.947 MB
03Part03.avi 615.98 MB
Gathering some info...

Register and log in Isohunt and see no captcha anymore!

4000 symbols left
Hash CA29E57A697BC01B9BED627CD8D2FD26374558CC

Related torrents for "Durham County 2007 Serie 2DVDrip 6 Parts English Klam"

Torrent search:

english 2007