imdb
rating

6.5
Big Miracle

Big Miracle (2012)

Adventure, Drama, Romance

Full description

Big Miracle (2012) DVDScr DD5 1 NL Subs

Size 1.013 GB   0 seeders     Added 2012-02-20 09:08:47

Stream torrent
Starting‥ You need BitLord! Get it from 1BitLord.com
6.3
To download or stream you need BitLord. Visit them at BitLord.com
Big Miracle (2012) DVDScr DD5.1 NL Subs.torrent\r\nFormat                           : AVI\r\nFormat/Info                      : Audio Video Interleave\r\nFormat profile                   : OpenDML\r\nFile size                        : 1.31 GiB\r\nDuration                         : 1h 50mn\r\nOverall bit rate                 : 1 698 Kbps\r\nWriting application              : VirtualDubMod 1.5.10.2 (build 2542/release)\r\nWriting library                  : VirtualDubMod build 2542/release\r\nOriginal source form             : MAX TORRENTZ\r\nCopyright                        : SIGISMUNT\r\n\r\nVideo\r\nID                               : 0\r\nFormat                           : MPEG-4 Visual\r\nFormat profile                   : AdvancedSimple@L5\r\nFormat settings, BVOP            : Yes\r\nFormat settings, QPel            : No\r\nFormat settings, GMC             : No warppoints\r\nFormat settings, Matrix          : Default (H.263)\r\nCodec ID                         : XVID\r\nCodec ID/Hint                    : XviD\r\nDuration                         : 1h 50mn\r\nBit rate                         : 1 245 Kbps\r\nWidth                            : 720 pixels\r\nHeight                           : 384 pixels\r\nDisplay aspect ratio             : 1.875\r\nFrame rate                       : 23.976 fps\r\nResolution                       : 24 bits\r\nColorimetry                      : 4:2:0\r\nScan type                        : Progressive\r\nBits/(Pixel*Frame)               : 0.188\r\nStream size                      : 983 MiB (73%)\r\nWriting library                  : XviD 1.2.1 (UTC 2008-12-04)\r\n\r\nAudio\r\nID                               : 1\r\nFormat                           : AC-3\r\nFormat/Info                      : Audio Coding 3\r\nCodec ID                         : 2000\r\nDuration                         : 1h 50mn\r\nBit rate mode                    : Constant\r\nBit rate                         : 448 Kbps\r\nChannel(s)                       : 6 channels\r\nChannel positions                : Front: L C R, Surround: L R, LFE\r\nSampling rate                    : 48.0 KHz\r\nStream size                      : 354 MiB (26%)\r\nAlignment                        : Aligned on interleaves\r\nInterleave, duration             : 64 ms (1.53 video frames)\r\nInterleave, preload duration     : 192 ms\r\n \r\nhttp://www.imdb.com/title/tt1430615/\r\n\r\nSource: DVD (perfect a/v/sync quality,sample included)\r\nThis torrent is not seedbox supported,please seed it to the MAX\r\n\r\nNote: We need anything you can offer as early releases,seedboxes,links,accounts,etc\r\nplease contact us on piratepedia[@]msn/gmail.com or our website torentz 3xforum ro\r\n\r\nBig Miracle (2012) DVDScr DD5.1 NL Subs.torrent Torrent Free download\r\n \r\n\r\nHow To Get Your Maxspeed (uTorrent)\r\n\r\nTorrent Client - Preferences - Bandwidth - Number of connections - Set aprox. 500 for each \r\nTorrent Client - Preferences - BiTorrent - Protocol Encryption - Forced\r\nBandwidth Allocation - High (Set download/upload limit - Unlimited)\r\nStop Other Active Torrents - Start downloading and wait for connections.\r\nEnjoy and Seed for at least 1:1 ratio. Don't forget to say thanks/leave reviews.\r\nBefore downloading you should check/google search sample \"release name\"\"sample\".\r\nGreets to all actual/future p2p/scene QUALITY groups and affiliate websites.\r\nDon't trust IMDb robot or bad ratings,always watch some trailers first.\r\nIgnore stupid comments/fake/mislabeled/no-DVDrips/CAM/TS/RAR uploads.\r\nPlease spread this release/torrent to your friends/forums/etc.\r\nIf you need translation subs visit some subtitles sites.\r\nReport if you see online streaming or other spam links.\r\nRecommended movie player VLC PLAYER.
Big Miracle (2012) DVDScr DD5.1 NL Subs.avi 1.013 GB
MOVIE.nfo 4.858 KB
Subs[ENG].srt 136.693 KB
Gathering some info...

Register and log in Isohunt and see no captcha anymore!

4000 symbols left
Hash A0431A627B257223E60F49CA5691F27D11791842

Related torrents for "Big Miracle (2012) DVDScr DD5 1 NL Subs"

Torrent search:

subs screener 2012