imdb
rating

6.9
Unknown

Unknown (2011)

Action, Mystery, Thriller

Full description

Church Girl 2011 DvdRip Xvid AC3 UnKnOwN

Size 1.469 GB   0 seeders     Added 2012-02-20 09:10:53

Stream torrent
Starting‥ You need BitLord! Get it from 1BitLord.com
To download or stream you need BitLord. Visit them at BitLord.com
Looking for fast download speeds come join http://dream-torrents.com for all the latest releases, with friendly staff online radio and games and much much more.\r\n-\r\n-\r\n.NOTES\r\n\r\nNOTES\r\n\r\nEncoded By .......:UnKnOwN\r\nRuntime ..........:2:12\r\nIMDb URL .........:http://www.amazon.com/Church-Girl-Robin-Givens/dp/\r\nLanguage .........:English\r\nFile Size ........:1.37gb\r\nRelease Date ......... 2011\r\nSource ......... Al's Soul food and fish(:\r\nFile Type ......... Single AVI\r\nPS3 Compatible ....... Go For It\r\nGenre ......... Comedy/Drama\r\n\r\nVideo\r\nID : 0\r\nFormat : MPEG-4 Visual\r\nFormat profile : Advanced Simple@L5\r\nFormat settings, BVOP : Yes\r\nFormat settings, QPel : No\r\nFormat settings, GMC : No warppoints\r\nFormat settings, Matrix : Custom\r\nCodec ID : XVID\r\nCodec ID/Hint : XviD\r\nDuration : 2h 12mn\r\nBit rate : 1680Kbps\r\nWidth : 720ixels\r\nHeight : 416pixels\r\nDisplay aspect ratio : 1.8.5\r\nFrame rate : 23.997fps\r\nColor space : YUV\r\nChroma subsampling : 4:2:0\r\nBit depth : 8 bits\r\nScan type : Progressive\r\nBits/(Pixel*Frame) : 0.234\r\nStream size : 892 MiB (86%)\r\nWriting library : XviD 1.2.1 (UTC 2008-12-04)\r\n\r\nAudio\r\nID : 1\r\nFormat : AC3\r\nFormat/Info : MPEG\r\nMode extension : CM (complete main)\r\nCodec ID : 2000\r\nDuration : 2h 12mn\r\nBit rate mode : Constant\r\nBit rate : 224kbps\r\nChannel(s) : 2channels\r\nChannel positions : Front: L R\r\nSampling rate : 48.0 KHz\r\nBit depth : 16 bits\r\nStream size : 302 MiB\r\nAlignment : Aligned on interleaves\r\nInterleave, duration : 42 ms (1.00 video frame)\r\nInterleave, preload duration : 512 ms\r\n\r\nSYSPNOSIS\r\nChurch Girl follows the life of Emily Franklin, a pastor's daughter who\r\nis lured into a dangerous and fast-paced world that leads her away from\r\nthe spiritual and virtuous lessons she has been taught since childhood.\r\n\r\nRELEASE INFO\r\nEnjoy\r\n\r\nLOOKING FOR\r\n\r\nGranny panties\r\n\r\nGREETZ & RESPECT\r\n\r\nNOBODY YET WILL LET YOU KNOW\r\n\r\nMORE GOODIES COMING REAL SOON
Church Girl 2011 DvdRip Xvid AC3 UnKnOwN.avi 1.468 GB
dvd cover.jpeg 854.053 KB
UnknOwN.nfo 10.291 KB
Gathering some info...

Register and log in Isohunt and see no captcha anymore!

4000 symbols left
Hash 32837A8A4D3D2712E78467ECB94579603076A0C2

Related torrents for "Church Girl 2011 DvdRip Xvid AC3 UnKnOwN"

Torrent search:

dvdrip 2011