Kari-gurashi no Arietti 2011 TS XviD Feel Free

Size 860.73 MB   0 seeders     Added 2012-02-20 14:22:45

Stream torrent
Starting‚Ä• You need BitLord! Get it from BitLord.com
To download or stream you need BitLord. Visit them at BitLord.com
High Road 2011

Genre:Comedy
Language:English
 
http://www.imdb.com/title/tt1692084/

Source:1080p BluRay x264-HD4U Thanks!
Encoder:Tony

Format : AVI
Format/Info : Audio Video Interleave
File size : 1.34 GiB
Duration : 1h 25mn
Overall bit rate : 2 252 Kbps


Video
ID : 0
Format : MPEG-4 Visual
Format profile : Advanced Simple@L5
Format settings, BVOP : 1
Format settings, QPel : No
Format settings, GMC : No warppoints
Format settings, Matrix : Default (H.263)
Codec ID : XVID
Codec ID/Hint : XviD
Duration : 1h 25mn
Bit rate : 1 795 Kbps
Width : 640 pixels
Height : 360 pixels
Display aspect ratio : 16:9
Frame rate : 23.976 fps
Color space : YUV
Chroma subsampling : 4:2:0
Bit depth : 8 bits
Scan type : Progressive
Compression mode : Lossy
Bits/(Pixel*Frame) : 0.325
Stream size : 1.07 GiB (80%)
Writing library : XviD 1.2.1 (UTC 2008-12-04)

Audio
ID : 1
Format : AC-3
Format/Info : Audio Coding 3
Mode extension : CM (complete main)
Codec ID : 2000
Duration : 1h 25mn
Bit rate mode : Constant
Bit rate : 448 Kbps
Channel(s) : 6 channels
Channel positions : Front: L C R, Side: L R, LFE
Sampling rate : 48.0 KHz
Bit depth : 16 bits
Compression mode : Lossy
Stream size : 273 MiB (20%)
Alignment : Aligned on interleaves
Interleave, duration : 42 ms (1.00 video frame)
Interleave, preload duration : 512 ms


Plot:
High Road showcases a totally improvised script about Glenn 

"Fitz" Fitzgerald (James Pumphery).	
Kari-gurashi no Arietti 2011 TS XviD Feel Free/Kari-gurashi no Arietti 2011 TS XviD Feel Free.avi 860.73 MB
Gathering some info...

Register and log in Isohunt and see no captcha anymore!

4000 symbols left
Hash b0a42bf5aa67d4df72366a65430133ba8b80ecf9