imdb
rating

6.4
This Means War

This Means War (2012)

Action, Comedy, Romance

Full description

This.Means.War.2012.720p BDRip XviD AC3 ViSiON

Size 854.439 MB   0 seeders     Added 2012-02-20 14:57:09

Stream torrent
Starting‥ You need BitLord! Get it from BitLord.com
To download or stream you need BitLord. Visit them at BitLord.com
This.Means.War.2012


.
..............................SiteInfo.........................

..

 -   http://www.scenetime.com  *_*   

SceneTime is going to Close sign up on march/1, hurry up! get 

in before the doors are closed.

     We care to share . Join us on  http://www.scenetime.com 

    Be the first to get new release at  

http://www.scenetime.com

        Seed back for speed



...................................NFO:........................

.........................[pre][IMG]

image[/IMG]

***************************************************************

****************
                     This.Means.War.2012.720p BDRip XviD AC3 ViSiON
***************************************************************

****************


[color=red]General Information:[/color]

Complete name                            : This.Means.War.2012.
Format                                   : AVI
Format/Info                              : Audio Video 

Interleave
File size                                : 695 MiB
Duration                                 : 1h 31mn
Overall bit rate                         : 1 062 Kbps
Language                                 : English
Subs                                     : N/A
Source                                   : SiC Many THANKS
Encoder                                  : akosipalos

[color=lime]iMDB:[/color] http://www.imdb.com/title/tt1596350/

[color=red]Video[/color]

ID                                       : 0
Format                                   : MPEG-4 Visual
Format profile                           : Advanced Simple@L5
Format settings, BVOP                    : 2
Format settings, QPel                    : No
Format settings, GMC                     : No warppoints
Format settings, Matrix                  : Default (H.263)
Codec ID                                 : XVID
Codec ID/Hint                            : XviD
Duration                                 : 1h 31mn
Bit rate                                 : 928 Kbps
Width                                    : 576 pixels
Height                                   : 208 pixels
Display aspect ratio                     : 2.769
Frame rate                               : 25.000 fps
Color space                              : YUV
Chroma subsampling                       : 4:2:0
Bit depth                                : 8 bits
Scan type                                : Progressive
Compression mode                         : Lossy
Bits/(Pixel*Frame)                       : 0.310
Stream size                              : 607 MiB (87%)
Writing library                          : XviD 1.2.1 (UTC 

2008-12-04)

[color=red]Audio[/color]

ID                                       : 1
Format                                   : MPEG Audio
Format version                           : Version 1
Format profile                           : Layer 3
Mode                                     : Joint stereo
Mode extension                           : MS Stereo
Codec ID                                 : 55
Codec ID/Hint                            : MP3
Duration                                 : 1h 31mn
Bit rate mode                            : Constant
Bit rate                                 : 128 Kbps
Channel(s)                               : 2 channels
Sampling rate                            : 48.0 KHz
Compression mode                         : Lossy
Stream size                              : 83.7 MiB (12%)
Alignment                                : Aligned on 

interleaves
Interleave, duration                     : 160 ms (4.00 video 

frames)
Interleave, preload duration             : 216 ms


[color=red]Plot:[/color]

Two top CIA operatives wage an epic battle against one another 

after they discover they are dating the same woman.   


[color=red]Screens:[/color]

[IMG]image[/IMG]

[IMG]image[/IMG]

[IMG]image[/IMG]

[IMG]image[/IMG]


[b][color=red]Release Notes:[/color][/b]

WE DONT RELEASE EVERYTHiNG TO OTHERS SiTES YOU WANT MORE OF OUR 

STUFF COME FiND US AT .......

WE ARE LOOKING FOR SUPPLiERS BLURAY, CAM, R5, PRE RETAiL DVD 

GOT SOMETHiNG WE MiGHT LiKE WHEN YOU FiND US TELL US.......


[center][b][color=red]GREETZ:[/color][/b]

Twisted | Bigguy | CTFX | Whitestag13 | THoRN | SANTi | PA4U2C 

| Jungledave | mtyy | Dreamer
| marsby | cld | Stortrapp | rizal | mannilim | Rock | Ulap | 

centserick2 | Galactica |
musikera | Tukmol | rock3r | canislupus | sickie | fun2knytz | 

lilyrose
 RiZAL Team Release | TRiNiTY | LEGi0N | LEGiTiMATE | HiVE-CM8 

| BHRG | DTRG 
  CrEwSaDe | Rx | LKRG | THC | aTLas | SiC | AbSurdiTy 

[img]

image[/img]

[b][color=red]PRESTiGE[/color] is the level of respect at which 

one is regarded by others....RIzE Above Or Sink Below...[/b]
[/center][/pre]		




..............................Site 

Info...........................

 -   http://www.scenetime.com  *_*   

SceneTime is going to Close sign up on march/1, hurry up! get 

in before the doors are closed.

     We care to share . Join us on  http://www.scenetime.com 

    Be the first to get new release at  

http://www.scenetime.com

        Seed back for speed

This.Means.War.2012.720p BDRip XviD AC3 ViSiON/This.Means.War.2012.720p BDRip XviD AC3 ViSiON.avi 854.439 MB
Gathering some info...

Register and log in Isohunt and see no captcha anymore!

4000 symbols left
Hash b184f71e959b704e903724114b0e58640170f390

Related torrents for "This.Means.War.2012.720p BDRip XviD AC3 ViSiON"

Torrent search:

hd 2012 bd