Edward Maya - Love Story (Tribute To Mexico) (h264mp4)

Size 84.739 MB   4 seeders     Added 2012-02-21 08:48:48

Stream torrent
Starting‥ You need BitLord! Get it from BitLord.com
To download or stream you need BitLord. Visit them at BitLord.com
General
Format : MPEG-4
Format profile : Base Media
Codec ID : isom
File size : 80.8 MiB
Duration : 4mn 11s
Overall bit rate : 2 698 Kbps
Encoded date : UTC 2012-02-18 15:27:31
Tagged date : UTC 2012-02-18 15:27:31
Video
ID : 1
Format : AVC
Format/Info : Advanced Video Codec
Format profile : High@L3.0
Format settings, CABAC : Yes
Format settings, ReFrames : 2 frames
Codec ID : avc1
Codec ID/Info : Advanced Video Coding
Duration : 4mn 11s
Bit rate mode : Variable
Bit rate : 2 662 Kbps
Maximum bit rate : 8 495 Kbps
Width : 720 pixels
Height : 480 pixels
Display aspect ratio : 16:9
Original display aspect ratio : 16:9
Frame rate mode : Constant
Frame rate : 23.976 fps
Standard : NTSC
Color space : YUV
Chroma subsampling : 4:2:0
Bit depth : 8 bits
Scan type : Progressive
Bits/(Pixel*Frame) : 0.321
Stream size : 78.6 MiB (97%)
Audio
ID : 2
Format : AAC
Format/Info : Advanced Audio Codec
Format profile : LC
Codec ID : 40
Duration : 4mn 11s
Bit rate mode : Variable
Bit rate : 67.9 Kbps
Maximum bit rate : 77.7 Kbps
Channel(s) : 2 channels
Channel positions : Front: L R
Sampling rate : 44.1 KHz
Compression mode : Lossy
Stream size : 2.03 MiB (3%) 
EdwardMayaPresentsVioletLight-LoveStory(TributeToMexico)-musicvideos-hq.net.mp4 84.739 MB
Gathering some info...

Register and log in Isohunt and see no captcha anymore!

4000 symbols left
Hash 09D9BFF1DEA7C4A259403F4F5E9E7CA1D283EDC4