Dr. Acula - Party 2.0 Music Video [360p] [2012] MP4 -BSAA.mp4

Size 11.857 MB   2 seeders     Added 2012-02-21 08:49:05

Stream torrent
Starting‥ You need BitLord! Get it from BitLord.com
To download or stream you need BitLord. Visit them at BitLord.com
PLEASE SEED!!!! http://en.wikipedia.org/wiki/Dr._Acula_(band) Format : MPEG-4 Format profile : Base Media / Version 2 Codec ID : mp42 File size : 11.3 MiB Duration : 2mn 8s Overall bit rate mode : Variable Overall bit rate : 736 Kbps Video ID : 1 Format : AVC Format/Info : Advanced Video Codec Format profile : Baseline@L3.0 Format settings, CABAC : No Format settings, ReFrames : 1 frame Codec ID : avc1 Codec ID/Info : Advanced Video Coding Duration : 2mn 8s Bit rate : 638 Kbps Maximum bit rate : 1 061 Kbps Width : 640 pixels Height : 360 pixels Display aspect ratio : 16:9 Frame rate mode : Constant Frame rate : 23.976 fps Color space : YUV Chroma subsampling : 4:2:0 Bit depth : 8 bits Scan type : Progressive Bits/(Pixel*Frame) : 0.115 Stream size : 9.79 MiB (87%) Audio ID : 2 Format : AAC Format/Info : Advanced Audio Codec Format profile : LC Codec ID : 40 Duration : 2mn 8s Bit rate mode : Variable Bit rate : 96.0 Kbps Maximum bit rate : 115 Kbps Channel(s) : 2 channels Channel positions : Front: L R Sampling rate : 44.1 KHz Compression mode : Lossy Stream size : 1.48 MiB (13%)
Dr. Acula - Party 2.0 Music Video [360p] [2012] MP4 -BSAA.mp4 11.857 MB
Gathering some info...

Register and log in Isohunt and see no captcha anymore!

4000 symbols left
Hash 0FE4C72DBF3BECF5F88A6F6BD87CE90C3294F4AF