imdb
rating

7.5
Justice League: Doom

Justice League: Doom (2012)

Action, Animation, Thriller

Full description
quality   bd x264 dvdrip telesync dvdr hd dvd

Justice League Doom 2012 BRRip XviD Ac3 DreamsRG

Size 892.104 MB   0 seeders     Added 2012-02-21 09:04:56

Stream torrent
Starting‥ You need BitLord! Get it from BitLord.com
To download or stream you need BitLord. Visit them at BitLord.com
Looking for fast download speeds come join http://dream-torrents.com for all the latest releases, with friendly staff online radio and games and much much more.\r\n-\r\n-\r\n.Justice.League.Doom.2012.BRRip.XviD.Ac3.DreamsRG\r\n\r\n\r\n\r\n\r\n\r\n\r\nComplete name :Justice.League.Doom.2012.BRRip.XviD.Ac3.DreamsRG\r\nFormat : MPEG-4\r\nFormat profile : Base Media\r\nCodec ID : isom\r\nFile size : 848 MiB\r\nDuration : 1h 16mn\r\nOverall bit rate : 1 543 Kbps\r\n\r\nVideo\r\nID : 1\r\nFormat : AVC\r\nFormat/Info : Advanced Video Codec\r\nFormat profile : Baseline@L3.0\r\nFormat settings, CABAC : No\r\nFormat settings, ReFrames : 1 frame\r\nFormat settings, GOP : M=1, N=33\r\nCodec ID : avc1\r\nCodec ID/Info : Advanced Video Coding\r\nDuration : 1h 16mn\r\nBit rate mode : Constant\r\nBit rate : 1 381 Kbps\r\nWidth : 720 pixels\r\nHeight : 400 pixels\r\nDisplay aspect ratio : 16:9\r\nFrame rate mode : Constant\r\nFrame rate : 23.976 fps\r\nStandard : NTSC\r\nColor space : YUV\r\nChroma subsampling : 4:2:0\r\nBit depth : 8 bits\r\nScan type : Progressive\r\nBits/(Pixel*Frame) : 0.200\r\nStream size : 759 MiB (89%)\r\nLanguage : English\r\n\r\n\r\nAudio\r\nID : 2\r\nFormat : AAC\r\nFormat/Info : Advanced Audio Codec\r\nFormat profile : LC\r\nCodec ID : 40\r\nDuration : 1h 16mn\r\nBit rate mode : Constant\r\nBit rate : 160 Kbps\r\nChannel(s) : 2 channels\r\nChannel positions : Front: L R\r\nSampling rate : 48.0 KHz\r\nCompression mode : Lossy\r\nStream size : 87.9 MiB (10%)\r\nLanguage : English\r\n\r\n\r\n\r\n \r\n This image has been resized. Click the image to view the full image. The original image is sized: 720 x 400\r\n \r\n \r\n This image has been resized. Click the image to view the full image. The original image is sized: 720 x 400\r\n \r\n \r\n This image has been resized. Click the image to view the full image. The original image is sized: 720 x 400\r\n \r\n\r\n:::::::Source:::::::\r\nJustice.League.Doom.2012.BRRip.XviD.Ac3.Feel-Free\r\n::::::Thank:::::::\r\n\r\n\r\nGreetz\r\nStoNerS,Feel-Free,3LT0N,Imagine,Flawl3ss,Santi,ILLUMINATI,Vision,Kingdom,BDK,LEGION,Classified\r\n,DiLLoN,BDK,NOiR,TOXiCiNK,THC,Ez,Rx,WBZ,iLLUSiON,SAFCuk009 and to all Groups past and present
DreamsRG.gif 203.387 KB
info 2.602 KB
info.txt 2.602 KB
Gathering some info...

Register and log in Isohunt and see no captcha anymore!

4000 symbols left
Hash 758CC8E672E2FB461F0096D63FF4B4818CB2150A

Related torrents for "Justice League Doom 2012 BRRip XviD Ac3 DreamsRG"

Torrent search:

2012 bd