The Secret

The Secret (2016)

Full description
quality   x264 hdtv hd dvd dvdr bd fullhd dvdrip

The Secret World Of Arrietty 2012 TS XviD - MiSTERE

Size 1.351 GB   0 seeders     Added 2012-02-22 20:56:02

Stream torrent
Starting‥ You need BitLord! Get it from 1BitLord.com
To download or stream you need BitLord. Visit them at BitLord.com
Video
ID                               : 0
Format                           : MPEG-4 Visual
Format profile                   : Advanced Simple@L5
Format settings, BVOP            : 2
Format settings, QPel            : No
Format settings, GMC             : No warppoints
Format settings, Matrix          : Default (H.263)
Muxing mode                      : Packed bitstream
Codec ID                         : XVID
Codec ID/Hint                    : XviD
Duration                         : 1h 15mn
Bit rate                         : 1 166 Kbps
Width                            : 680 pixels
Height                           : 288 pixels
Display aspect ratio             : 2.35:1
Frame rate                       : 25.000 fps
Color space                      : YUV
Chroma subsampling               : 4:2:0
Bit depth                        : 8 bits
Scan type                        : Progressive
Compression mode                 : Lossy
Bits/(Pixel*Frame)               : 0.238
Stream size                      : 629 MiB (89%)
Writing library                  : XviD 64

Audio
ID                               : 1
Format                           : MPEG Audio
Format version                   : Version 1
Format profile                   : Layer 3
Mode                             : Joint stereo
Mode extension                   : MS Stereo
Codec ID                         : 55
Codec ID/Hint                    : MP3
Duration                         : 1h 15mn
Bit rate mode                    : Constant
Bit rate                         : 128 Kbps
Channel(s)                       : 2 channels
Sampling rate                    : 44.1 KHz
Compression mode                 : Lossy
Stream size                      : 69.0 MiB (10%)
Alignment                        : Split accross interleaves
Interleave, duration             : 40 ms (1.00 video frame)

videos nice audios nicer
want to complain go call your mother
The Secret World Of Arrietty 2012 TS XviD - MiSTERE/1337x.Org.txt 26 B
The Secret World Of Arrietty 2012 TS XviD - MiSTERE/Blazinseedboxes.com.txt 98 B
The Secret World Of Arrietty 2012 TS XviD - MiSTERE/The Secret World Of Arrietty 2012 TS XviD - MiSTERE.avi 1.351 GB
Gathering some info...

Register and log in Isohunt and see no captcha anymore!

4000 symbols left
Hash 454388ee9db26c8ec63c18f1eb26624fe718be18

Related torrents for "The Secret World Of Arrietty 2012 TS XviD - MiSTERE"

Torrent search:

telesync 2012