Ghost Rider Spirit of Vengeance R5 XviDAC3-PRESTiGE

Size 1.697 GB   0 seeders     Added 2012-02-25 04:21:37

Stream torrent
Starting‥ You need BitLord! Get it from 1BitLord.com
To download or stream you need BitLord. Visit them at BitLord.com
[CENTER]\r\nGhost Rider Spirit of Vengeance R5 XviD AC3 PRESTiGE\r\n\r\n[IMG]image[/IMG]\r\nPlot:\r\nAs Johnny Blaze hides out in Eastern Europe, he is called upon to stop the\r\ndevil, who is trying to take human form.\r\nSources - Thanks :P\r\nVideo\r\nID : 0\r\nFormat : MPEG-4 Visual\r\nFormat profile : Advanced Simple@L5\r\nFormat settings, BVOP : 2\r\nFormat settings, QPel : No\r\nFormat settings, GMC : No warppoints\r\nFormat settings, Matrix : Default (H.263)\r\nMuxing mode : Packed bitstream\r\nCodec ID : XVID\r\nCodec ID/Hint : XviD\r\nDuration : 1h 28mn\r\nBit rate : 3 209 Kbps\r\nWidth : 1 280 pixels\r\nHeight : 540 pixels\r\nDisplay aspect ratio : 2.35:1\r\nFrame rate : 29.970 fps\r\nColor space : YUV\r\nChroma subsampling : 4:2:0\r\nBit depth : 8 bits\r\nScan type : Progressive\r\nCompression mode : Lossy\r\nBits/(Pixel*Frame) : 0.155\r\nStream size : 1.98 GiB (96%)\r\nWriting library : XviD 64\r\nAudio\r\nID : 1\r\nFormat : MPEG Audio\r\nFormat version : Version 1\r\nFormat profile : Layer 3\r\nMode : Joint stereo\r\nMode extension : MS Stereo\r\nCodec ID : 55\r\nCodec ID/Hint : MP3\r\nDuration : 1h 28mn\r\nBit rate mode : Constant\r\nBit rate : 128 Kbps\r\nChannel(s) : 2 channels\r\nSampling rate : 44.1 KHz\r\nCompression mode : Lossy\r\nStream size : 80.7 MiB (4%)\r\nAlignment : Split accross interleaves\r\nInterleave, duration : 16368 ms (490.54 video frames)\r\nWriting library : LAME3.99r\r\nEncoding settings : -m j -V 4 -q 2 -lowpass 17 -b 128\r\n[IMG]image[/IMG]\r\n[IMG]image[/IMG]\r\n[/CENTER]
Codec guide.txt 221 B
Ghost.Rider.Spirit.of.Vengeance.2012.R5.XviD.AC3-PRESTiGE.avi 1.697 GB
snapshot1.jpg 63.162 KB
Gathering some info...

Register and log in Isohunt and see no captcha anymore!

4000 symbols left
Hash 7411555E2A416E9ADE47C7FC3BAAA85B1A9EE484

Related torrents for "Ghost Rider Spirit of Vengeance R5 XviDAC3-PRESTiGE"

Torrent search:

2012 dvd