Real Steel 2011 ENGLISH DVDRiP XviD-PoX

Size 1.579 GB   0 seeders     Added 2012-02-25 05:31:53

To download or stream you need BitLord. Visit them at BitLord.com
Complete name : Real Steel 2011 ENGLISH DVDRiP XviD-PoX
[RoB]PR3DATOR RG 
Format : MPEG-4 
Format profile : Base Media 
Codec ID : isom 
File size : 1 023 MiB 
Duration : 2h 6mn 
Overall bit rate : 1 127 Kbps 
Encoded date : UTC 2012-01-03 02:18:38 
Tagged date : UTC 2012-01-03 02:18:38 
Writing application : Lavf51.12.1 

Video #1 

ID : 1 
Format : AVC 
Format/Info : Advanced Video Codec 
Format profile : Baseline@L2.1 
Format settings, CABAC : No 
Format settings, ReFrames : 5 frames 
Codec ID : avc1 
Codec ID/Info : Advanced Video Coding 
Duration : 2h 6mn 
Bit rate mode : Variable 
Bit rate : 882 Kbps 
Width : 640 pixels 
Height : 272 pixels 
Display aspect ratio : 2.35:1 
Frame rate mode : Constant 
Frame rate : 23.976 fps 
Color space : YUV 
Chroma subsampling : 4:2:0 
Bit depth : 8 bits 
Scan type : Progressive 
Bits/(Pixel*Frame) : 0.211 
Stream size : 800 MiB (78%) 
Encoded date : UTC 2012-01-03 02:18:38 
Tagged date : UTC 2012-01-03 02:18:38 

Audio #2 

ID : 2 
Format : AAC 
Format/Info : Advanced Audio Codec 
Format profile : LC 
Codec ID : 40 
Duration : 2h 6mn 
Bit rate mode : Variable 
Bit rate : 241 Kbps 
Channel(s) : 6 channels 
Channel positions : Front: L C R, Side: L R, LFE 
Sampling rate : 44.1 KHz 
Compression mode : Lossy 
Stream size : 218 MiB (21%) 
Encoded date : UTC 2012-01-03 02:18:38 
Tagged date : UTC 2012-01-03 02:18:38 

[IMG]image[/IMG]
[IMG]image[/IMG]
[IMG]image[/IMG]
Real Steel 2011 ENGLISH DVDRiP XviD-PoX.rar 1.579 GB
Gathering some info...

Register and log in Isohunt and see no captcha anymore!

4000 symbols left
Hash 2e315e01681be38184e8f2e24664fae6f85f00a4