imdb
rating

6.2
Coriolanus

Coriolanus (2011)

Drama, Thriller

Full description
quality   dvdrip telesync bd dvd screener

Coriolanus 2011 R5 XViD - INSPiRAL

Size 1.489 GB   0 seeders     Added 2012-02-25 15:44:32

Stream torrent
Starting‥ You need BitLord! Get it from BitLord.com
6.7
To download or stream you need BitLord. Visit them at BitLord.com
[img]image[/img]


TITLE:

Coriolanus 2011 R5 CAM XViD - INSPiRAL

IMDB:

http://www.imdb.com/title/tt1372686/


SOURCES:

VIDEO - Lum1x vobs THANKS
AUDIO - Elvis THANKS
SUBS  - None Add

STATS:

Video
ID                               : 0
Format                           : MPEG-4 Visual
Format profile                   : Advanced Simple@L5
Format settings, BVOP            : 2
Format settings, QPel            : No
Format settings, GMC             : No warppoints
Format settings, Matrix          : Default (MPEG)
Muxing mode                      : Packed bitstream
Codec ID                         : XVID
Codec ID/Hint                    : XviD
Duration                         : 1h 58mn
Bit rate                         : 1 527 Kbps
Width                            : 720 pixels
Height                           : 288 pixels
Display aspect ratio             : 2.500
Frame rate                       : 25.000 fps
Color space                      : YUV
Chroma subsampling               : 4:2:0
Bit depth                        : 8 bits
Scan type                        : Progressive
Compression mode                 : Lossy
Bits/(Pixel*Frame)               : 0.295
Stream size                      : 1.26 GiB (92%)
Writing library                  : XviD 64

Audio
ID                               : 1
Format                           : MPEG Audio
Format version                   : Version 1
Format profile                   : Layer 3
Codec ID                         : 55
Codec ID/Hint                    : MP3
Duration                         : 1h 58mn
Bit rate mode                    : Constant
Bit rate                         : 128 Kbps
Channel(s)                       : 2 channels
Sampling rate                    : 44.1 KHz
Compression mode                 : Lossy
Stream size                      : 108 MiB (8%)
Alignment                        : Split accross interleaves
Interleave, duration             : 40 ms (1.00 video frame)
Interleave, preload duration     : 500 ms



NOTES:

Right the russian r5 was nice,but lacked on the contrast,sharpeness ....just like most r5s do.
Audio was nice cam but had noise issues and a tad loud.
For the video just make a small script for it containing crop,resize,heavy noise,sharpen ...then dropped that into
vdub and used the rgb eq and contrast brightness to fix the issue it had.
Audio i had to sync ....what a PITA,done the normal way cutting into a few pieces and stretching.shrinking and worked ...
until i went too append them lol ...
Anyway got there in the end without any cuts but took some work and some hair pulling lol.
Once done totally remastered the audio on AA ....and now sounds great for cam audio

Overall v9 a 7.5 .......

[img]image[/img]
[img]image[/img]
[img]image[/img]
[img]image[/img]
Coriolanus 2011 R5 CAM XViD - INSPiRAL/Coriolanus 2011 R5 CAM XViD - INSPiRAL.avi 1.474 GB
Coriolanus 2011 R5 CAM XViD - INSPiRAL/Coriolanus 2011 R5 CAM XViD - INSPiRAL.NFO 3.288 KB
Coriolanus 2011 R5 CAM XViD - INSPiRAL/SAMPLE - INSPiRAL.avi 14.681 MB
Gathering some info...

Register and log in Isohunt and see no captcha anymore!

4000 symbols left
Hash 677a82452026873daf47bd56b9930a23cbf346fd

Related torrents for "Coriolanus 2011 R5 XViD - INSPiRAL"

Torrent search:

dvd 2011