JLS - Proud (h264mp4)

Size 61.137 MB   0 seeders     Added 2012-02-26 12:12:12

Stream torrent
Starting‥ You need BitLord! Get it from BitLord.com
To download or stream you need BitLord. Visit them at BitLord.com
General
Format : MPEG-4
Format profile : Base Media
Codec ID : isom
File size : 58.3 MiB
Duration : 4mn 7s
Overall bit rate : 1 977 Kbps
Encoded date : UTC 2012-02-19 16:27:17
Tagged date : UTC 2012-02-19 16:27:17
Video
ID : 1
Format : AVC
Format/Info : Advanced Video Codec
Format profile : High@L3.0
Format settings, CABAC : Yes
Format settings, ReFrames : 2 frames
Codec ID : avc1
Codec ID/Info : Advanced Video Coding
Duration : 4mn 7s
Bit rate mode : Variable
Bit rate : 1 975 Kbps
Maximum bit rate : 3 294 Kbps
Width : 720 pixels
Height : 480 pixels
Display aspect ratio : 16:9
Original display aspect ratio : 16:9
Frame rate mode : Constant
Frame rate : 25.000 fps
Standard : NTSC
Color space : YUV
Chroma subsampling : 4:2:0
Bit depth : 8 bits
Scan type : Progressive
Bits/(Pixel*Frame) : 0.229
Stream size : 56.3 MiB (97%)
Audio
ID : 2
Format : AAC
Format/Info : Advanced Audio Codec
Format profile : LC
Codec ID : 40
Duration : 4mn 7s
Bit rate mode : Variable
Bit rate : 60.2 Kbps
Maximum bit rate : 79.0 Kbps
Channel(s) : 2 channels
Channel positions : Front: L R
Sampling rate : 44.1 KHz
Compression mode : Lossy
Stream size : 1.78 MiB (3%) 
JLS-Proud-musicvideos-hq.net.mp4 61.137 MB
Gathering some info...

Register and log in Isohunt and see no captcha anymore!

4000 symbols left
Hash 1B16E6B2F5A45C69B24E28033DECD0E6063BB467