imdb
rating

7.7
Celine: Through the Eyes of the World

Celine: Through the Eyes of the World (2010)

Documentary, Music

Full description
quality   dvdrip x264 hd bd fullhd dvdr

Muhammad Ali Through the Eyes of the World

Size 730.64 MB   0 seeders     Added 2012-02-26 20:50:42

Stream torrent
Starting‥ You need BitLord! Get it from BitLord.com
To download or stream you need BitLord. Visit them at BitLord.com
Looking for fast download speeds come join http://dream-torrents.com for all the latest releases, with friendly staff online radio and games and much much more.\r\n-\r\n-\r\n.Muhammad Ali: Through the Eyes of the World\r\n\r\nType: Documentary\r\n\r\nYear: 2001\r\n\r\nCategories: Documentary\r\n\r\nDuration: 115m\r\n\r\nLanguage\r\n\r\nAudio: English\r\n\r\nSubs: -\r\n\r\n\r\n\r\nMuhammad Ali has been called the greatest athlete of his century, but he was much more than a great\r\n\r\nboxer; he was one of the most compelling figures of his time, a leader in the civil rights\r\n\r\nmovement, a fiercely principled man who nearly traded in his career rather than violate his\r\n\r\nreligious beliefs, and a figure of remarkable charm and charisma in a sport hardly known for\r\n\r\nproducing articulate men. Muhammad Ali: Through the Eyes of the World is a feature-length\r\n\r\ndocumentary which uses vintage films clips and interviews with his friends, family, and admirers\r\n\r\nto tell the full story of Ali's life and career. Celebrity interviews include James Earl Jones,\r\n\r\nBilly Crystal, Rod Steiger, and Billy Connolly.\r\n\r\n\r\n\r\nhttp://www.imdb.com/title/tt0404251/\r\n\r\n\r\n\r\nSpecs:\r\n\r\nGeneral\r\n\r\nFormat : AVI\r\n\r\nFormat/Info : Audio Video Interleave\r\n\r\nFile size : 697 MiB\r\n\r\nDuration : 1h 43mn\r\n\r\nOverall bit rate mode : Variable\r\n\r\nOverall bit rate : 938 Kbps\r\n\r\n\r\n\r\nVideo\r\n\r\nID : 0\r\n\r\nFormat : MPEG-4 Visual\r\n\r\nFormat profile : Advanced Simple@L5\r\n\r\nFormat settings, BVOP : 1\r\n\r\nFormat settings, QPel : No\r\n\r\nFormat settings, GMC : No warppoints\r\n\r\nFormat settings, Matrix : Custom\r\n\r\nCodec ID : XVID\r\n\r\nCodec ID/Hint : XviD\r\n\r\nDuration : 1h 43mn\r\n\r\nBit rate : 814 Kbps\r\n\r\nWidth : 592 pixels\r\n\r\nHeight : 336 pixels\r\n\r\nDisplay aspect ratio : 16:9\r\n\r\nFrame rate : 30.000 fps\r\n\r\nColor space : YUV\r\n\r\nChroma subsampling : 4:2:0\r\n\r\nBit depth : 8 bits\r\n\r\nScan type : Progressive\r\n\r\nCompression mode : Lossy\r\n\r\nBits/(Pixel*Frame) : 0.136\r\n\r\nStream size : 605 MiB (87%)\r\n\r\n\r\n\r\nAudio\r\n\r\nID : 1\r\n\r\nFormat : MPEG Audio\r\n\r\nFormat version : Version 1\r\n\r\nFormat profile : Layer 3\r\n\r\nMode : Joint stereo\r\n\r\nMode extension : MS Stereo\r\n\r\nCodec ID : 55\r\n\r\nCodec ID/Hint : MP3\r\n\r\nDuration : 1h 43mn\r\n\r\nBit rate mode : Variable\r\n\r\nBit rate : 109 Kbps\r\n\r\nNominal bit rate : 128 Kbps\r\n\r\nChannel(s) : 2 channels\r\n\r\nSampling rate : 48.0 KHz\r\n\r\nCompression mode : Lossy\r\n\r\nStream size : 81.3 MiB (12%)\r\n\r\nAlignment : Aligned on interleaves\r\n\r\nInterleave, duration : 24 ms (0.72 video frame)\r\n\r\nInterleave, preload duration : 168 ms\r\n\r\nWriting library : LAME3.98r
Muhammad Ali Through the Eyes of the World.avi 730.64 MB
Gathering some info...

Register and log in Isohunt and see no captcha anymore!

4000 symbols left
Hash BA38B1C992692DA52507403DE69039E1F6C86B55

Related torrents for "Muhammad Ali Through the Eyes of the World"