Chino Y Nacho - El Poeta (Premios Lo Nuestro 2012) (h264)

Size 127.292 MB   0 seeders     Added 2012-02-27 13:12:12

Stream torrent
Starting‚Ä• You need BitLord! Get it from BitLord.com
To download or stream you need BitLord. Visit them at BitLord.com
General
Format : MPEG-4
Format profile : Base Media
Codec ID : isom
File size : 121 MiB
Duration : 4mn 12s
Overall bit rate : 4 035 Kbps
Encoded date : UTC 2012-02-26 17:44:25
Tagged date : UTC 2012-02-26 17:44:25
Video
ID : 1
Format : AVC
Format/Info : Advanced Video Codec
Format profile : High@L3.0
Format settings, CABAC : Yes
Format settings, ReFrames : 2 frames
Codec ID : avc1
Codec ID/Info : Advanced Video Coding
Duration : 4mn 12s
Bit rate mode : Variable
Bit rate : 4 017 Kbps
Maximum bit rate : 12.0 Mbps
Width : 640 pixels
Height : 480 pixels
Display aspect ratio : 4:3
Frame rate mode : Constant
Frame rate : 29.970 fps
Color space : YUV
Chroma subsampling : 4:2:0
Bit depth : 8 bits
Scan type : Progressive
Bits/(Pixel*Frame) : 0.436
Stream size : 119 MiB (98%)
Audio
ID : 2
Format : AAC
Format/Info : Advanced Audio Codec
Format profile : LC
Codec ID : 40
Duration : 4mn 12s
Bit rate mode : Variable
Bit rate : 60.7 Kbps
Maximum bit rate : 67.5 Kbps
Channel(s) : 2 channels
Channel positions : Front: L R
Sampling rate : 44.1 KHz
Compression mode : Lossy
Stream size : 1.83 MiB (2%)
 
ChinoYNacho-ElPoeta-PremiosLoNuestro2012-musicvideos-hq.net.mp4 127.292 MB
Gathering some info...

Register and log in Isohunt and see no captcha anymore!

4000 symbols left
Hash 794BFF2E8D97EBD5C4160FDD8940C1B5BCEE47E1

Related torrents for "Chino Y Nacho - El Poeta (Premios Lo Nuestro 2012) (h264)"

Torrent search:

2012