Species Quadrilogy DVDrip English Klam

Size 6.358 GB   1 seeders     Added 2012-02-27 18:49:10

Stream torrent
Starting‥ You need BitLord! Get it from 1BitLord.com
10
To download or stream you need BitLord. Visit them at BitLord.com
[img] image[/img]\r\n\r\nSpecies 1995, http://www.imdb.com/title/tt0114508\r\nA message from outer space contains instructions on how to modify human DNA.\r\n\r\nSpecies 2 1998, http://www.imdb.com/title/tt0120841\r\nMykelti Williamson and Justin Lazard are a pair of astronauts who make the first successful manned mission to Mars...\r\n\r\nSpecies 3 2004, http://www.imdb.com/title/tt0410650\r\nSara (Sunny Mabrey), the daughter of Eve (Natasha Henstridge) begins her mission to mate with humans, while a specialist military team hunt her down to kill her before its too late. \r\n\r\nSpecies 4 The Awakening 2007 http://www.imdb.com/title/tt0844894\r\nDr. Hollander, a scientist, takes his niece Miranda to Mexico in an attempt to reverse the effects of the alien DNA he used to create her...\r\n\r\nhttp://bayimg.com/FAmCDAADo\r\n\r\n[COLOR=#DD0000]------------------------ Dutch Friends ------------------------\r\n---------------------------------------------------------------\r\n- Bezoek ook eens mijn vrienden op:  http://www.Film-Test.nl --\r\n----- voor mijn Nederlandse Sync. ondertitels ---- en meer ----\r\n------- http://www.Film-Test.nl ---- voor Films en meer -------\r\n---------------------------------------------------------------[/COLOR]\r\n\r\nGeneral:\r\n\r\nComplete name                    : Species\\Species.avi\r\nFormat                           : AVI\r\nFormat/Info                      : Audio Video Interleave\r\nFile size                        : 1.68 GiB\r\nDuration                         : 1h 43mn\r\nOverall bit rate                 : 2 312 Kbps\r\n\r\nVideo:\r\n\r\nFormat                           : MPEG-4 Visual\r\nFormat profile                   : Simple@L3\r\nFormat settings, BVOP            : No\r\nFormat settings, QPel            : No\r\nFormat settings, GMC             : No warppoints\r\nFormat settings, Matrix          : Default (H.263)\r\nCodec ID                         : XVID\r\nCodec ID/Hint                    : XviD\r\nDuration                         : 1h 43mn\r\nBit rate                         : 1 918 Kbps\r\nWidth                            : 720 pixels\r\nHeight                           : 304 pixels\r\nDisplay aspect ratio             : 2.35:1\r\nFrame rate                       : 25.000 fps\r\nColor space                      : YUV\r\nChroma subsampling               : 4:2:0\r\nBit depth                        : 8 bits\r\nScan type                        : Progressive\r\nCompression mode                 : Lossy\r\nBits/(Pixel*Frame)               : 0.350\r\nStream size                      : 1.39 GiB (83%)\r\nWriting library                  : XviD 1.1.2 (UTC 2006-11-01)\r\n\r\nAudio:\r\n\r\nFormat                           : AC-3\r\nFormat/Info                      : Audio Coding 3\r\nMode extension                   : CM (complete main)\r\nCodec ID                         : 2000\r\nDuration                         : 1h 43mn\r\nBit rate mode                    : Constant\r\nBit rate                         : 384 Kbps\r\nChannel(s)                       : 6 channels\r\nChannel positions                : Front: L C R, Side: L R, LFE\r\nSampling rate                    : 48.0 KHz\r\nBit depth                        : 16 bits\r\nCompression mode                 : Lossy\r\nStream size                      : 285 MiB (17%)\r\nAlignment                        : Aligned on interleaves\r\nInterleave, duration             : 32 ms (0.80 video frame)\r\nInterleave, preload duration     : 288 ms
Cover/Species Quadrilogy.jpg 142.526 KB
Cover/www.Film-Test.nl.jpg 36.286 KB
New Dutch Site.txt 117 B
Gathering some info...

Register and log in Isohunt and see no captcha anymore!

4000 symbols left
Hash EA15E18060A8D06C230CD007A150A603C5CCAD44