imdb
rating

6.5
Act of Valor

Act of Valor (2012)

Action, Thriller, War

Full description
quality   telesync dvdrip bd h264

Act of Valor Trailer 2012 BRRip 480p Dual Audio Eng-Hindi

Size 843.098 MB   0 seeders     Added 2012-02-27 20:00:20

Stream torrent
Starting‥ You need BitLord! Get it from BitLord.com
To download or stream you need BitLord. Visit them at BitLord.com
Act of Valor Trailer 2012 BRRip 480p Dual Audio Eng-Hindi

Format                           : AVI
Format/Info                      : Audio Video Interleave
Format profile                   : OpenDML
File size                        : 787 MiB
Duration                         : 1h 49mn
Overall bit rate                 : 1 714 Kbps
Writing application              : VirtualDubMod 1.5.10.2 (build 2542/release)
Writing library                  : VirtualDubMod build 2542/release
Original source form             : MAX TORRENTZ

Video
ID                               : 0
Format                           : MPEG-4 Visual
Format profile                   : AdvancedSimple@L5
Format settings, BVOP            : Yes
Format settings, QPel            : No
Format settings, GMC             : No warppoints
Format settings, Matrix          : Default (H.263)
Codec ID                         : XVID
Codec ID/Hint                    : XviD
Duration                         : 1h 49mn
Bit rate                         : 1 325 Kbps
Width                            : 640 pixels
Height                           : 272 pixels
Display aspect ratio             : 2.35:1
Frame rate                       : 23.976 fps
Resolution                       : 24 bits
Colorimetry                      : 4:2:0
Scan type                        : Progressive
Bits/(Pixel*Frame)               : 0.318
Stream size                      : 787 MiB (77%)
Writing library                  : XviD 61

Audio
ID                               : 1
Format                           : AC-3
Format/Info                      : Audio Coding 3
Codec ID                         : 2000
Duration                         : 1h 49mn
Bit rate mode                    : Constant
Bit rate                         : 384 Kbps
Channel(s)                       : 6 channels
Channel positions                : Front: L C R, Surround: L R, LFE
Sampling rate                    : 48.0 KHz
Stream size                      : 147 MiB (22%)
Alignment                        : Aligned on interleaves
Interleave, duration             : 64 ms (1.54 video frames)
Interleave, preload duration     : 192 ms


http://www.imdb.com/title/tt1591479/


Act of Valor Trailer 2012 BRRip 480p Dual Audio Eng-Hindi

How To Get Your Maxspeed (uTorrent)

Torrent Client - Preferences - Bandwidth - Number of connections - Set aprox. 500 for each Torrent Client - Preferences - BiTorrent - Protocol Encryption - Forced
Bandwidth Allocation - High (Set download/upload limit - Unlimited)
Stop Other Active Torrents - Start downloading and wait for connections.
Enjoy and Seed for at least 1:1 ratio. Don't forget to say thanks/leave reviews. How to get PSN card Codes here. http://psncardcodesdownloadfree.blogspot.com/
Before downloading you should check/google search sample "release name""sample".Greets to all actual/future p2p/scene QUALITY groups and affiliate websites.Don't trust IMDb robot or bad ratings,always watch some trailers first. Ignore stupid comments/fake/mislabeled/no-DVDrips/CAM/TS/RAR uploads. Please spread this release/torrent to your friends/forums/etc. If you need translation subs visit some subtitles sites. Report if you see online streaming or other spam links.
Recommended movie player VLC PLAYER.
Act of Valor Trailer 2012 BRRip 480p Dual Audio Eng-Hindi/Act of Valor Trailer 2012 BRRip 480p Dual Audio Eng-Hindi.avi 826.127 MB
Act of Valor Trailer 2012 BRRip 480p Dual Audio Eng-Hindi/Release.nfo 0 B
Act of Valor Trailer 2012 BRRip 480p Dual Audio Eng-Hindi/Sample.avi 16.97 MB
Gathering some info...

Register and log in Isohunt and see no captcha anymore!

4000 symbols left
Hash bb1881037bbd9eedbf1157105d72b30e5d323cc6

Related torrents for "Act of Valor Trailer 2012 BRRip 480p Dual Audio Eng-Hindi"

Torrent search:

english hindi 2012 bd