Eldorado.2012 DVDRip FXG

Size 736.852 MB   0 seeders     Added 2012-03-03 08:25:18

Stream torrent
Starting‥ You need BitLord! Get it from 1BitLord.com
To download or stream you need BitLord. Visit them at BitLord.com
Eldorado.2012 DVDRip FXG


Date: 2012.03
 
http://www.imdb.com/title/tt1514043/

Genre: Comedy | Horror | Musical | Western

Subtitles: n/a


Release notes

Enjoy!


Details

Format: AVI
Format/Info: Audio Video Interleave
File size: 1.37 GiB
Duration: 1h 55mn
Overall bit rate: 1 694 Kbps
Writing application: VirtualDubMod 1.5.10.2 (build 2540/release)
Writing library: VirtualDubMod build 2540/release

Video
ID: 0
Format: MPEG-4 Visual
Format profile: Advanced Simple@L5
Format settings, BVOP: 2
Format settings, QPel: No
Format settings, GMC: No warppoints
Format settings, Matrix: Default (H.263)
Codec ID: XVID
Codec ID/Hint: XviD
Duration: 1h 55mn
Bit rate: 1 236 Kbps
Width: 640 pixels
Height: 352 pixels
Display aspect ratio: 16:9
Frame rate: 25.000 fps
Color space: YUV
Chroma subsampling: 4:2:0
Bit depth: 8 bits
Scan type: Progressive
Compression mode: Lossy
Bits/(Pixel*Frame): 0.220
Stream size: 1 020 MiB (73%)
Writing library: XviD 61

Audio
ID: 1
Format: AC-3
Format/Info: Audio Coding 3
Mode extension: CM (complete main)
Codec ID: 2000
Duration: 1h 55mn
Bit rate mode: Constant
Bit rate: 448 Kbps
Channel(s): 6 channels
Channel positions: Front: L C R, Side: L R, LFE
Sampling rate: 48.0 KHz
Bit depth: 16 bits
Compression mode: Lossy
Stream size: 370 MiB (26%)
Alignment: Split accross interleaves
Interleave, duration: 40 ms (1.00 video frame)
Interleave, preload duration: 500 ms


The Stranger, a tall striking creature dressed in white sets into motion
a series of events whilst reciting the Edgar Allen Poe Poem \"Eldorado\",
which will have an effect on those heading towards the mythical city.

[img]image[/img]
[img]image[/img]
[img]image[/img]
[img]image[/img]
[img]image[/img][/center]	
Eldorado.2012 DVDRip FXG/Eldorado.2012 DVDRip FXG.avi 733.852 MB
Eldorado.2012 DVDRip FXG/MOVIE.nfo 4.858 KB
Eldorado.2012 DVDRip FXG/Sample.avi 2.994 MB
Gathering some info...

Register and log in Isohunt and see no captcha anymore!

4000 symbols left
Hash 8accfddee063b30f48057e7111efb61906bbbb2a