imdb
rating

6.3
Young Adult

Young Adult (2011)

Comedy, Drama, Romance

Full description
quality   dvdrip dvd cam

Young Adult 2011 BRRiP x264-nenad023

Size 366.136 MB   0 seeders     Added 2012-03-03 16:10:05

Stream torrent
Starting‥ You need BitLord! Get it from 1BitLord.com
To download or stream you need BitLord. Visit them at BitLord.com
Young Adult 2011 BRRiP x264-nenad023


General
Complete name                            : Young Adult 2011 BRRiP x264-nenad023.mkv
Format                                   : Matroska
Format version                           : Version 2
File size                                : 349 MiB
Duration                                 : 1h 33mn
Overall bit rate mode                    : Variable
Overall bit rate                         : 521 Kbps
Movie name                               : Young Adult 2011 BRRiP x264-nenad023
Encoded date                             : UTC 2012-03-02 21:21:10
Writing application                      : mkvmerge v4.6.0 (\'Still Crazy After All These Years\') built on Mar 10 2011 02:50:32
Writing library                          : libebml v1.2.0 + libmatroska v1.1.0

Video
ID                                       : 1
Format                                   : AVC
Format/Info                              : Advanced Video Codec
Format profile                           : High@L4.0
Format settings, CABAC                   : Yes
Format settings, ReFrames                : 3 frames
Codec ID                                 : V_MPEG4/ISO/AVC
Duration                                 : 1h 33mn
Bit rate mode                            : Variable
Bit rate                                 : 392 Kbps
Maximum bit rate                         : 25.0 Mbps
Width                                    : 640 pixels
Height                                   : 352 pixels
Display aspect ratio                     : 16:9
Frame rate                               : 23.976 fps
Color space                              : YUV
Chroma subsampling                       : 4:2:0
Bit depth                                : 8 bits
Scan type                                : Progressive
Bits/(Pixel*Frame)                       : 0.073
Stream size                              : 256 MiB (73%)
Writing library                          : x264 core 114 r1924 08d04a4
Encoding settings                        : cabac=1 / ref=3 / deblock=1:0:0 / analyse=0x3:0x133 / me=umh / subme=7 / psy=1 / psy_rd=1.00:0.00 / mixed_ref=1 / me_range=16 / chroma_me=1 / trellis=1 / 8x8dct=1 / cqm=0 / deadzone=21,11 / fast_pskip=1 / chroma_qp_offset=-2 / threads=3 / sliced_threads=0 / nr=0 / decimate=1 / interlaced=0 / constrained_intra=0 / bframes=3 / b_pyramid=0 / b_adapt=1 / b_bias=0 / direct=1 / weightb=1 / open_gop=0 / weightp=2 / keyint=240 / keyint_min=24 / scenecut=40 / intra_refresh=0 / rc_lookahead=40 / rc=2pass / mbtree=1 / bitrate=392 / ratetol=1.0 / qcomp=0.60 / qpmin=0 / qpmax=69 / qpstep=4 / cplxblur=20.0 / qblur=0.5 / vbv_maxrate=25000 / vbv_bufsize=25000 / nal_hrd=vbr / ip_ratio=1.40 / aq=1:1.00
Default                                  : Yes
Forced                                   : No

Audio
ID                                       : 2
Format                                   : MPEG Audio
Format version                           : Version 1
Format profile                           : Layer 3
Mode                                     : Joint stereo
Mode extension                           : MS Stereo
Codec ID                                 : A_MPEG/L3
Codec ID/Hint                            : MP3
Duration                                 : 1h 33mn
Bit rate mode                            : Constant
Bit rate                                 : 128 Kbps
Channel(s)                               : 2 channels
Sampling rate                            : 44.1 KHz
Compression mode                         : Lossy
Stream size                              : 85.7 MiB (25%)
Writing library                          : LAME3.98r
Encoding settings                        : -m j -V 4 -q 3 -lowpass 17 -b 128
Default                                  : Yes
Forced                                   : No

enjoy
nenad023
Young Adult 2011 BRRiP x264-nenad023/Young Adult 2011 BRRiP x264-nenad023.mkv 365.997 MB
Young Adult 2011 BRRiP x264-nenad023/Young Adult 2011 BRRiP x264-nenad023.jpg 135.139 KB
Young Adult 2011 BRRiP x264-nenad023/Young Adult 2011 BRRiP x264-nenad023.nfo 3.887 KB
Gathering some info...

Register and log in Isohunt and see no captcha anymore!

4000 symbols left
Hash e698c8dddd4fa7e10ceb390fbe5376103832788f

Related torrents for "Young Adult 2011 BRRiP x264-nenad023"

Torrent search:

x264 bd 2011