imdb
rating

4.3
Ghost Rider: Spirit of Vengeance

Ghost Rider: Spirit of Vengeance (2011)

Action, Fantasy, Thriller

Full description
quality   bd x264 hd cam dvdrip screener

Ghost Rider Spirit of Vengeance (2011) HDRip.torrent

Size 967.827 MB   0 seeders     Added 2012-03-03 22:53:35

Stream torrent
Starting‥ You need BitLord! Get it from BitLord.com
To download or stream you need BitLord. Visit them at BitLord.com
Ghost Rider Spirit of Vengeance (2011) HDRip


Imdb: 
http://www.imdb.com/title/tt1071875/

Plot:
As Johnny Blaze hides out in Eastern Europe, he is called upon to stop the devil, who is trying to take human form.

Sources:
LUMX1 FOR DVDR!!!

Notes:
VERY GOOD VIDEO AND AUDIO! ENJOY!!

Greetz:
Xtreme Encode|FYA|ILLUMANTI|CM8|RX|VISION|HDSCENE|NIGHTMAREZ|xTriLL|DTRG|CRYS|REMIXHD|BIDA|RX|REFILL| INSPiRAL|SIC
To all the people who have helped me :P you know who you are

Anything to offer email us @: 26k@hushmail.me

Video
ID                                       : AVI
Format                                   : AVI
Format profile                           : Advanced Simple@L5
Format settings, BVOP                    : 2
Format settings, QPel                    : No
Format settings, GMC                     : No warppoints
Format settings, Matrix                  : Default (H.263)
Muxing mode                              : Packed bitstream
Codec ID                                 : XVID
Codec ID/Hint                            : XviD
Duration                                 : 1h 40mn
Bit rate                                 : 953 Kbps
Width                                    : 720 pixels
Height                                   : 300 pixels
Display aspect ratio                     : 2.40:1
Frame rate                               : 25.000 fps
Color space                              : YUV
Chroma subsampling                       : 4:2:0
Bit depth                                : 8 bits
Scan type                                : Progressive
Compression mode                         : Lossy
Bits/(Pixel*Frame)                       : 0.176
Stream size                              : 832 MiB (71%)
Writing library                          : XviD 1.2.1 (UTC 2008-12-04)

Audio
ID                                       : 1
Format                                   : AC-3
Format/Info                              : Audio Coding 3
Mode extension                           : CM (complete main)
Codec ID                                 : 2000
Duration                                 : 1h 40mn
Bit rate mode                            : Constant
Bit rate                                 : 384 Kbps
Channel(s)                               : 6 channels
Channel positions                        : Front: L C R, Side: L R, LFE
Sampling rate                            : 48.0 KHz
Bit depth                                : 16 bits
Compression mode                         : Lossy
Stream size                              : 335 MiB (28%)
Alignment                                : Aligned on interleaves
Interleave, duration                     : 32 ms (0.80 video frame)
Interleave, preload duration             : 32 ms
Ghost Rider Spirit of Vengeance (2011) HDRip/Ghost Rider Spirit of Vengeance (2011) HDRip.avi 967.685 MB
Ghost Rider Spirit of Vengeance (2011) HDRip/MOVIE.nfo 4.858 KB
Ghost Rider Spirit of Vengeance (2011) HDRip/Subs[ENG].srt 136.693 KB
Gathering some info...

Register and log in Isohunt and see no captcha anymore!

4000 symbols left
Hash 06dbf31f6f2834940ac6faeae582fbbdc6dca9a8

Related torrents for "Ghost Rider Spirit of Vengeance (2011) HDRip.torrent"

Torrent search:

hd 2011