imdb
rating

5.8
Journey 2: The Mysterious Island

Journey 2: The Mysterious Island (2012)

Action, Adventure, Science Fiction

Full description
quality   cam dvdrip bd screener

Journey 2 The Mysterious Island (2012) READNFO DVDRip XviD BiDA.torrent

Size 989.847 MB   0 seeders     Added 2012-03-03 22:59:03

Stream torrent
Starting‥ You need BitLord! Get it from 1BitLord.com
To download or stream you need BitLord. Visit them at BitLord.com
Journey 2 The Mysterious Island (2012) READNFO DVDRip XviD BiDA


Ok just a little something to keep ya happy
Had to be a small rip or it would take me a week to get it on my seeder 
The masters will be working on better more suitable encodes for you quality nuts out there
Has the occasional property of logo
Enjoy

 
http://www.imdb.com/title/tt1397514/

General
Format                           : AVI
Format/Info                      : Audio Video Interleave
File size                        : 720 MiB
Duration                         : 2h 5mn
Overall bit rate mode            : Variable
Overall bit rate                 : 668 Kbps
Writing application              : VirtualDubMod 1.5.4.1 (build 2178/release)
Writing library                  : VirtualDubMod build 2178/release

Video
ID                               : 0
Format                           : MPEG-4 Visual
Format profile                   : Advanced Simple@L5
Format settings, BVOP            : 1
Format settings, QPel            : No
Format settings, GMC             : No warppoints
Format settings, Matrix          : Custom
Codec ID                         : XVID
Codec ID/Hint                    : XviD
Duration                         : 2h 5mn
Bit rate                         : 538 Kbps
Width                            : 576 pixels
Height                           : 240 pixels
Display aspect ratio             : 2.40:1
Frame rate                       : 23.976 fps
Color space                      : YUV
Chroma subsampling               : 4:2:0
Bit depth                        : 8 bits
Scan type                        : Progressive
Compression mode                 : Lossy
Bits/(Pixel*Frame)               : 0.162
Stream size                      : 564 MiB (81%)
Writing library                  : XviD 1.2.1 (UTC 2008-12-04)

Audio
ID                               : 1
Format                           : MPEG Audio
Format version                   : Version 1
Format profile                   : Layer 3
Mode                             : Joint stereo
Mode extension                   : MS Stereo
Codec ID                         : 55
Codec ID/Hint                    : MP3
Duration                         : 2h 5mn
Bit rate mode                    : Variable
Bit rate                         : 118 Kbps
Nominal bit rate                 : 128 Kbps
Channel(s)                       : 2 channels
Sampling rate                    : 48.0 KHz
Compression mode                 : Lossy
Stream size                      : 123 MiB (18%)
Alignment                        : Aligned on interleaves
Interleave, duration             : 24 ms (0.58 video frame)
Interleave, preload duration     : 156 ms
Writing library                  : LAME3.98r
Encoding settings                : -m j -V 4 -q 2 -lowpass 17 --abr 128


PLOT:
Sean Anderson partners with his mom\'\'s boyfriend on a mission to find his grandfather, who is thought to be missing on a mythical island.
Journey 2 The Mysterious Island (2012) READNFO DVDRip XviD BiDA/Journey 2 The Mysterious Island (2012) READNFO DVDRip XviD BiDA.avi 989.705 MB
Journey 2 The Mysterious Island (2012) READNFO DVDRip XviD BiDA/MOVIE.nfo 4.858 KB
Journey 2 The Mysterious Island (2012) READNFO DVDRip XviD BiDA/Subs[ENG].srt 136.693 KB
Gathering some info...

Register and log in Isohunt and see no captcha anymore!

4000 symbols left
Hash fbe223591359e9ee214f19427f9948b84bddee1e

Related torrents for "Journey 2 The Mysterious Island (2012) READNFO DVDRip XviD BiDA.torrent"

Torrent search:

dvdrip 2012