imdb
rating

6.4
This Means War

This Means War (2012)

Action, Comedy, Romance

Full description

This Means War (2012) DVDRiP AC3 XViD ENGLiSH.torrent

Size 904.912 MB   0 seeders     Added 2012-03-03 23:35:07

Stream torrent
Starting‥ You need BitLord! Get it from 1BitLord.com
To download or stream you need BitLord. Visit them at BitLord.com
This Means War (2012) DVDRiP AC3 XViD ENGLiSH


Imdb: 
http://www.imdb.com/title/tt1596350/

Plot:
Unemployed and newly-divorced Stephanie Plum lands a job at her cousin\'\'s bail-bond business, where her first assignment puts her on the trail of a wanted local cop from her romantic past.


Sources:
LUMX1 FOR DVDR!!!

Notes:
VERY GOOD VIDEO AND AUDIO! ENJOY!!

Greetz:
Xtreme Encode|FYA|ILLUMANTI|CM8|RX|VISION|HDSCENE|NIGHTMAREZ|xTriLL|DTRG|CRYS|REMIXHD|BIDA|RX|REFILL| INSPiRAL|SIC
To all the people who have helped me :P you know who you are

Anything to offer email us @: 26k@hushmail.me

Video
ID                                       : AVI
Format                                   : AVI
Format profile                           : Advanced Simple@L5
Format settings, BVOP                    : 2
Format settings, QPel                    : No
Format settings, GMC                     : No warppoints
Format settings, Matrix                  : Default (H.263)
Muxing mode                              : Packed bitstream
Codec ID                                 : XVID
Codec ID/Hint                            : XviD
Duration                                 : 2h 12mn
Bit rate                                 : 953 Kbps
Width                                    : 720 pixels
Height                                   : 300 pixels
Display aspect ratio                     : 2.40:1
Frame rate                               : 25.000 fps
Color space                              : YUV
Chroma subsampling                       : 4:2:0
Bit depth                                : 8 bits
Scan type                                : Progressive
Compression mode                         : Lossy
Bits/(Pixel*Frame)                       : 0.176
Stream size                              : 832 MiB (71%)
Writing library                          : XviD 1.2.1 (UTC 2008-12-04)

Audio
ID                                       : 1
Format                                   : AC-3
Format/Info                              : Audio Coding 3
Mode extension                           : CM (complete main)
Codec ID                                 : 2000
Duration                                 : 2h 12mn
Bit rate mode                            : Constant
Bit rate                                 : 384 Kbps
Channel(s)                               : 6 channels
Channel positions                        : Front: L C R, Side: L R, LFE
Sampling rate                            : 48.0 KHz
Bit depth                                : 16 bits
Compression mode                         : Lossy
Stream size                              : 335 MiB (28%)
Alignment                                : Aligned on interleaves
Interleave, duration                     : 32 ms (0.80 video frame)
Interleave, preload duration             : 32 ms
This Means War (2012) DVDRiP AC3 XViD ENGLiSH/MOVIE.nfo 4.858 KB
This Means War (2012) DVDRiP AC3 XViD ENGLiSH/Subs[ENG].srt 136.693 KB
This Means War (2012) DVDRiP AC3 XViD ENGLiSH/This Means War (2012) DVDRiP AC3 XViD ENGLiSH.avi 904.77 MB
Gathering some info...

Register and log in Isohunt and see no captcha anymore!

4000 symbols left
Hash d3eef3de703483b5dfe35cb81216b098dc7b3ad4

Related torrents for "This Means War (2012) DVDRiP AC3 XViD ENGLiSH.torrent"

Torrent search:

dvdrip english 2012