imdb
rating

5.3
One for the Money

One for the Money (2012)

Action, Comedy, Crime, Thriller, Romance

Full description

One for the Money 2012 (TS2DVD)(NLsubs)(1337X) TBS B-SAM

Size 1.212 GB   0 seeders     Added 2012-03-04 21:03:58

Stream torrent
Starting‥ You need BitLord! Get it from BitLord.com
To download or stream you need BitLord. Visit them at BitLord.com
General
Format : Matroska
Format version : Version 2
Duration : 1h 42mn
Overall bit rate : 5139 Kbps
Encoded date : UTC 2012-02-26 18:35:23
Writing application : mkvmerge v5.3.0 (\'I could have danced\') built on Feb 9 2012 10:38:07
Writing library : libebml v1.2.3 + libmatroska v1.3.0

Video
ID : 1
Format : AVC
Format/Info : Advanced Video Codec
Format profile : High@L4.1
Format settings, CABAC : Yes
Format settings, ReFrames : 12 frames
Muxing mode : Header stripping
Codec ID : V_MPEG4/ISO/AVC
Duration : 1h 42mn
Bit rate : 4500 Kbps
Width : 1280 pixels
Height : 528 pixels
Display aspect ratio : 2.40:1
Frame rate : 24.000 fps
Color space : YUV
Chroma subsampling : 4:2:0
Bit depth : 8 bits
Scan type : Progressive
Bits/(Pixel*Frame) : 0.277
Stream size : 3.14 GiB (86%)
Title : AVC MPEG4 Video
Writing library : x264 core 120 r2164 da19765
Language : Chinese
Color primaries : BT.709-5, BT.1361, IEC 61966-2-4, SMPTE RP177
Transfer characteristics : BT.709-5, BT.1361
Matrix coefficients : BT.709-5, BT.1361, IEC 61966-2-4 709, SMPTE RP177

Audio
ID : 2
Format : AC-3
Format/Info : Audio Coding 3
Mode extension : CM (complete main)
Muxing mode : Header stripping
Codec ID : A_AC3
Duration : 1h 42mn
Bit rate mode : Constant
Bit rate : 640 Kbps
Channel(s) : 6 channels
Channel positions : Front: L C R, Side: L R, LFE
Sampling rate : 48.0 KHz
Bit depth : 16 bits
Compression mode : Lossy
Stream size : 468 MiB (12%)
Title : AC3 5.1 640 kbps

Text
ID : 3
Format : UTF-8
Codec ID : S_TEXT/UTF8
Codec ID/Info : UTF-8 Plain Text
Title : English Subtitle sup to srt
Language : English
One for the Money 2012 (TS2DVD)(NLsubs)(1337X) TBS B-SAM/One for the Money 2012 (TS2DVD)(NLsubs)(1337X) TBS B-SAM.avi 1.212 GB
One for the Money 2012 (TS2DVD)(NLsubs)(1337X) TBS B-SAM/SubsNL.srt 66.476 KB
One for the Money 2012 (TS2DVD)(NLsubs)(1337X) TBS B-SAM/Torrent downloaded from Demonoid.me.txt 46 B
Gathering some info...

Register and log in Isohunt and see no captcha anymore!

4000 symbols left
Hash d639f51bfca4462219152b9389de8019c62a960f

Related torrents for "One for the Money 2012 (TS2DVD)(NLsubs)(1337X) TBS B-SAM"

Torrent search:

2012