imdb
rating

 
Home

Home (2016)

Horror, Drama, Family

Full description
quality   dvdrip x264 dvdr hdtv

Jeff Who Lives at Home 2012 BRRip XviD AC3-FTW

Size 800.533 MB   0 seeders     Added 2012-03-05 20:59:57

Stream torrent
Starting‥ You need BitLord! Get it from BitLord.com
To download or stream you need BitLord. Visit them at BitLord.com
[B]Jeff Who Lives at Home 2012 BRRip XviD AC3-FTW[/B]

[I][B]Dispatched from his basement room on an errand for his mother, slacker Jeff might discover his destiny 

(finally) when he spends the day with his brother as he tracks his possibly adulterous wife. [/B][/I]
 
http://www.imdb.com/title/tt1588334/

[img]image[/img]

[img]image[/img]

[img]image[/img]

[img]image[/img]

[I][B]Source: [legendET]....THX

Format                           : AVI
Format/Info                      : Audio Video Interleave
Duration                         : 1h 35mn
Overall bit rate                 : 1 694 Kbps
Writing application              : Lavf51.12.1
Writing library                  : VirtualDub build 33848/release

Video
ID                               : 0
Format                           : MPEG-4 Visual
Format profile                   : Advanced Simple@L5
Format settings, BVOP            : Yes
Format settings, QPel            : No
Format settings, GMC             : No warppoints
Format settings, Matrix          : Default (H.263)
Muxing mode                      : Packed bitstream
Codec ID                         : XVID
Codec ID/Hint                    : XviD
Duration                         : 1h 35mn
Bit rate                         : 1 492 Kbps
Width                            : 720 pixels
Height                           : 304 pixels
Display aspect ratio             : 2.35:1
Frame rate                       : 25.000 fps
Color space                      : YUV
Chroma subsampling               : 4:2:0
Bit depth                        : 8 bits
Scan type                        : Progressive
Bits/(Pixel*Frame)               : 0.273
Stream size                      : 966 GiB (88%)
Writing library                  : XviD 1.2.1 (UTC 2008-12-04)

Audio
ID                               : 1
Format                           : MPEG Audio
Format version                   : Version 1
Format profile                   : Layer 3
Mode                             : Joint stereo
Mode extension                   : MS Stereo
Codec ID                         : 55
Codec ID/Hint                    : MP3
Duration                         : 1h 35mn
Bit rate mode                    : Constant
Bit rate                         : 192 Kbps
Channel(s)                       : 2 channels
Stream size                      : 161 MiB (11%)
Alignment                        : Split accross interleaves
Interleave, duration             : 40 ms (1.00 video frame)
Interleave, preload duration     : 500 ms
Writing library                  : LAME3.98.2

Audio: untouched

Workdone:
Well getting pm's like crazy...some believe it and some dont, but yes we removed the watermark, but only 90% 

of it. Then we had a choice to blur it or not for the finishing touch. If we didnt litely blur the area you 

would be able to see the outline of the watermark, so we litely blur it. Last 2 screenshots will show 

examples. After that was all done, it was a pain to get this file saved in this new program and we had to 

read up on it. After that was done we insert it into vdub and did our usual, levels, brightness,contrast,and 

litely ran a smoother.[/B][/I]

[B]ENJOY THIS FINE RELEASE :)[/B]
Jeff Who Lives at Home 2012 BRRip XviD AC3-FTW/darkcore.me.txt 834 B
Jeff Who Lives at Home 2012 BRRip XviD AC3-FTW/ENG.sub 8.745 MB
Jeff Who Lives at Home 2012 BRRip XviD AC3-FTW/HD File info.txt 727 B
Gathering some info...

Register and log in Isohunt and see no captcha anymore!

4000 symbols left
Hash 43039edad3fd76c471893c46de2cde65af208e28

Related torrents for "Jeff Who Lives at Home 2012 BRRip XviD AC3-FTW"

Torrent search:

2012 bd