The Vow 2012 ENG R5 LiNE XViD-TiNO

Size 1.098 GB   0 seeders     Added 2012-03-06 00:06:50

Stream torrent
Starting‥ You need BitLord! Get it from 1BitLord.com
To download or stream you need BitLord. Visit them at BitLord.com
[img]image[/img]

The Vow 2012 ENG R5 LiNE XViD-TiNO

A car accident puts Paige (McAdams) in a coma, and when she wakes up with severe memory loss, her husband Leo (Tatum) works to win her heart again.
 
http://www.imdb.com/title/tt1606389/

Source: eztv

Format                           : AVI
Format/Info                      : Audio Video Interleave
Duration                         : 2h 12mn
Overall bit rate                 : 1 694 Kbps
Writing application              : Lavf51.12.1
Writing library                  : VirtualDub build 33848/release

Video
ID                               : 0
Format                           : MPEG-4 Visual
Format profile                   : Advanced Simple@L5
Format settings, BVOP            : Yes
Format settings, QPel            : No
Format settings, GMC             : No warppoints
Format settings, Matrix          : Default (H.263)
Muxing mode                      : Packed bitstream
Codec ID                         : XVID
Codec ID/Hint                    : XviD
Duration                         : 2h 12mn
Bit rate                         : 1 492 Kbps
Width                            : 720 pixels
Height                           : 304 pixels
Display aspect ratio             : 2.35:1
Frame rate                       : 25.000 fps
Color space                      : YUV
Chroma subsampling               : 4:2:0
Bit depth                        : 8 bits
Scan type                        : Progressive
Bits/(Pixel*Frame)               : 0.273
Stream size                      : 1.02 GiB (91%)
Writing library                  : XviD 1.2.1 (UTC 2008-12-04)

Audio
ID                               : 1
Format                           : MPEG Audio
Format version                   : Version 1
Format profile                   : Layer 3
Mode                             : Joint stereo
Mode extension                   : MS Stereo
Codec ID                         : 55
Codec ID/Hint                    : MP3
Duration                         : 2h 12mn
Bit rate mode                    : Constant
Bit rate                         : 192 Kbps
Channel(s)                       : 2 channels
Stream size                      : 188 MiB (22%)
Alignment                        : Split accross interleaves
Interleave, duration             : 40 ms (1.00 video frame)
Interleave, preload duration     : 500 ms
Writing library                  : LAME3.98.2

Workdone:
Well getting pm\'s like crazy...some believe it and some dont, but yes we removed the watermark, but only 90% of it. Then we had a choice to blur it or not for the finishing touch. If we didnt litely blur the area you would be able to see the outline of the watermark, so we litely blur it. Last 2 screenshots will show examples. After that was all done, it was a pain to get this file saved in this new program and we had to read up on it. After that was done we insert it into vdub and did our usual, levels, brightness,contrast,and litely ran a smoother.

Audio: untouched

image

ENJOY THIS FINE RELEASE BY: eztv THANKS!!!!
The Vow 2012 ENG R5 LiNE XViD-TiNO/darkcore.me.txt 834 B
The Vow 2012 ENG R5 LiNE XViD-TiNO/HD File info.txt 727 B
The Vow 2012 ENG R5 LiNE XViD-TiNO/sceneunderground.org.txt 77 B
Gathering some info...

Register and log in Isohunt and see no captcha anymore!

4000 symbols left
Hash 77a15981a7d5d964546ebc10a9a53effca551d47