Journey 2 The Mysterious Island 2012 BRRIP XviD AC3-PRESTiGE

Size 1.696 GB   0 seeders     Added 2012-03-06 18:18:41

10
To download or stream you need BitLord. Visit them at BitLord.com
Complete name: Journey 2 The Mysterious Island 2012 BRRIP XviD AC3 PRESTiGE\r\n\r\nFormat: Matroska\r\n\r\nFormat version: Version 2\r\n\r\nFile size: 699 MiB\r\n\r\nDuration: 1h 23mn\r\n\r\nOverall bit rate: 1 172 Kbps\r\n\r\nEncoded date: UTC 2012-03-04 22:21:05\r\n\r\nWriting application: mkvmerge v5.2.1 ('A Far Off Place') built on Jan 2 2012 23:21:10\r\n\r\nWriting library: libebml v1.2.3 + libmatroska v1.3.0\r\n\r\n\r\n\r\nVideo\r\n\r\nID: 1\r\n\r\nFormat: AVC\r\n\r\nFormat/Info: Advanced Video Codec\r\n\r\nFormat profile: High@L4.2\r\n\r\nFormat settings, CABAC: Yes\r\n\r\nFormat settings, ReFrames: 4 frames\r\n\r\nCodec ID: V_MPEG4/ISO/AVC\r\n\r\nDuration: 1h 23mn\r\n\r\nBit rate: 1 042 Kbps\r\n\r\nWidth: 720 pixels\r\n\r\nHeight: 304 pixels\r\n\r\nDisplay aspect ratio: 2.35:1\r\n\r\nFrame rate: 23.976 fps\r\n\r\nColor space: YUV\r\n\r\nChroma subsampling: 4:2:0\r\n\r\nBit depth: 8 bits\r\n\r\nScan type: Progressive\r\n\r\nBits/(Pixel*Frame): 0.199\r\n\r\nStream size: 608 MiB (87%)\r\n\r\nWriting library: x264 core 120 r2146 bcd41db\r\n\r\nLanguage: English\r\n\r\nDefault: Yes\r\n\r\nForced: No\r\n\r\nSource: 720p, thanks mate\r\n\r\n\r\n\r\nAudio\r\n\r\nID: 2\r\n\r\nFormat: AC-3\r\n\r\nFormat/Info: Audio Coding 3\r\n\r\nMode extension: CM (complete main)\r\n\r\nCodec ID: A_AC3\r\n\r\nDuration: 1h 23mn\r\n\r\nBit rate mode: Constant\r\n\r\nBit rate: 128 Kbps\r\n\r\nChannel(s): 2 channels\r\n\r\nChannel positions: Front: L R\r\n\r\nSampling rate: 48.0 KHz\r\n\r\nBit depth: 16 bits\r\n\r\nCompression mode: Lossy\r\n\r\nStream size: 76.3 MiB (11%)\r\n\r\nDefault: Yes\r\n\r\nForced: No\r\n\r\nSource: 720p, thanks mate\r\n[IMG]image[/IMG]\r\n[IMG]image[/IMG]
Journey.2.The.Mysterious.Island.2012.BRRIP.XviD.AC3-PRESTiGE.part01.rar 104.858 MB
Journey.2.The.Mysterious.Island.2012.BRRIP.XviD.AC3-PRESTiGE.part02.rar 104.858 MB
Journey.2.The.Mysterious.Island.2012.BRRIP.XviD.AC3-PRESTiGE.part03.rar 104.858 MB
Gathering some info...

Register and log in Isohunt and see no captcha anymore!

4000 symbols left
Hash BDB004D1BCD590F3A40C785C9B417DE7F92D535E

Related torrents for "Journey 2 The Mysterious Island 2012 BRRIP XviD AC3-PRESTiGE"

Torrent search:

2012