imdb
rating

8.3
Paan Singh Tomar

Paan Singh Tomar (2012)

Crime, Drama, Sport

Full description
quality   dvdrip x264 hd web-dl bd

Paan Singh Tomar DVD-RIP XVID QNT

Size 834.667 MB   0 seeders     Added 2012-03-08 03:37:31

Stream torrent
Starting‥ You need BitLord! Get it from 1BitLord.com
To download or stream you need BitLord. Visit them at BitLord.com
Paan Singh Tomar DVD-RIP XVID.QNT\r\n\r\nStoryline\r\n\r\nA reporter interviews Paan Singh Tomar (Irfan Khan), a dacoit who is in the news for killing 9 people of a community. Answering questions about himself, the story goes in a flashback in year 1950. Paan Singh works in the Army while his (wife and mother) live in Morena. He surprises his seniors in the Army with his athletic skills. Though he was not interested in sports, he joins the sports division because there was no limit on diet. Picked for the 5000 meters race's training, he was persuaded to run for the 3000 meter steeplechase by his coach. He participates in the Indian National Games and wins the gold medal in the steeplechase event 7 years in a row. In 1958 he participates in the Asian Games at Tokyo, but couldn't win because of inability to adjust with the Spikes given to him in the final event only. He feels frustrated when not allowed to go the borders in 1962 and 1965 war because sportsmen were not allowed to fight in the wars. In 1967, he participated in the International Military Games and wins the gold medal in the steeplechase....\r\n\r\n\r\n\r\nGenres:\r\nComedy | Romance \r\n\r\n\r\nCountry: India\r\n\r\nLanguage: Hindi \r\n\r\nDirector: Tigmanshu Dhulia\r\n\r\nStars: Mahie Gill, Imran Hasnee and Irrfan Khan \r\n\r\n\r\n\r\n\r\n\r\nFormat                           : AVI\r\nFormat/Info                      : Audio Video Interleave\r\nFormat profile                   : OpenDML\r\nOverall bit rate                 : 1 800 Kbps\r\nWriting application              : VirtualDubMod 1.5.10.2 (build 2542/release)\r\nWriting library                  : VirtualDubMod build 2542/release\r\n\r\n\r\nVideo\r\nID                               : 0\r\nFormat                           : MPEG-4 Visual\r\nFormat profile                   : AdvancedSimple@L5\r\nFormat settings, BVOP            : Yes\r\nFormat settings, QPel            : No\r\nFormat settings, GMC             : No warppoints\r\nFormat settings, Matrix          : Default (MPEG)\r\nCodec ID                         : XVID\r\nCodec ID/Hint                    : XviD\r\nBit rate                         : 1 411 Kbps\r\nWidth                            : 640 pixels\r\nHeight                           : 272 pixels\r\nDisplay aspect ratio             : 2.35:1\r\nFrame rate                       : 23.976 fps\r\nResolution                       : 24 bits\r\nColorimetry                      : 4:2:0\r\nScan type                        : Progressive\r\nBits/(Pixel*Frame)               : 0.338\r\nStream size                      : 1.03 GiB (78%)\r\nWriting library                  : XviD 64\r\n\r\nAudio\r\nID                               : 1\r\nFormat                           : AC-3\r\nFormat/Info                      : Audio Coding 3\r\nCodec ID                         : 2000\r\nBit rate mode                    : Constant\r\nBit rate                         : 384 Kbps\r\nChannel(s)                       : 6 channels\r\nChannel positions                : Front: L C R, Surround: L R, LFE\r\nSampling rate                    : 48.0 KHz\r\nStream size                      : 287 MiB (21%)\r\nAlignment                        : Aligned on interleaves\r\nInterleave, duration             : 64 ms (1.53 video frames)\r\nInterleave, preload duration     : 192 ms
DMT NFO.txt 496 B
Paan Singh Tomar DVD-RIP XVID.QNT.avi 834.666 MB
Gathering some info...

Register and log in Isohunt and see no captcha anymore!

4000 symbols left
Hash F922799B508323E28F9A7AC2F7D09A25F93043DF

Related torrents for "Paan Singh Tomar DVD-RIP XVID QNT"