imdb
rating

8.3
Kahaani

Kahaani (2012)

Drama, Thriller, Foreign

Full description
quality   dvdrip x264 hd dvdr fullhd bd

Kahaani DVD-RIP XVID QNT

Size 834.667 MB   0 seeders     Added 2012-03-08 03:40:09

Stream torrent
Starting‥ You need BitLord! Get it from BitLord.com
10
To download or stream you need BitLord. Visit them at BitLord.com
Kahaani DVD-RIP XVID.QNT\r\n\r\nStoryline\r\n\r\nA pregnant woman's search for her missing husband takes her from London to Kolkata, but others doubt the husband's existence.\r\n\r\nGenres:\r\nComedy | Romance \r\n\r\n\r\nCountry: India\r\n\r\nLanguage: Hindi \r\n\r\nA pregnant woman's search for her missing husband takes her from London to Kolkata, but others doubt the husband's existence.\r\n\r\nDirector: Sujoy Ghosh\r\n\r\nWriters: Sujoy Ghosh, Ritesh Shah (dialogue)\r\n\r\nStars: Vidya Balan, Parambrata Chatterjee and Nawazuddin Siddiqui \r\n\r\n\r\n\r\n\r\nFormat                           : AVI\r\nFormat/Info                      : Audio Video Interleave\r\nFormat profile                   : OpenDML\r\nOverall bit rate                 : 1 800 Kbps\r\nWriting application              : VirtualDubMod 1.5.10.2 (build 2542/release)\r\nWriting library                  : VirtualDubMod build 2542/release\r\n\r\n\r\nVideo\r\nID                               : 0\r\nFormat                           : MPEG-4 Visual\r\nFormat profile                   : AdvancedSimple@L5\r\nFormat settings, BVOP            : Yes\r\nFormat settings, QPel            : No\r\nFormat settings, GMC             : No warppoints\r\nFormat settings, Matrix          : Default (MPEG)\r\nCodec ID                         : XVID\r\nCodec ID/Hint                    : XviD\r\nBit rate                         : 1 411 Kbps\r\nWidth                            : 640 pixels\r\nHeight                           : 272 pixels\r\nDisplay aspect ratio             : 2.35:1\r\nFrame rate                       : 23.976 fps\r\nResolution                       : 24 bits\r\nColorimetry                      : 4:2:0\r\nScan type                        : Progressive\r\nBits/(Pixel*Frame)               : 0.338\r\nStream size                      : 1.03 GiB (78%)\r\nWriting library                  : XviD 64\r\n\r\nAudio\r\nID                               : 1\r\nFormat                           : AC-3\r\nFormat/Info                      : Audio Coding 3\r\nCodec ID                         : 2000\r\nBit rate mode                    : Constant\r\nBit rate                         : 384 Kbps\r\nChannel(s)                       : 6 channels\r\nChannel positions                : Front: L C R, Surround: L R, LFE\r\nSampling rate                    : 48.0 KHz\r\nStream size                      : 287 MiB (21%)\r\nAlignment                        : Aligned on interleaves\r\nInterleave, duration             : 64 ms (1.53 video frames)\r\nInterleave, preload duration     : 192 ms
DMT NFO.txt 496 B
Kahaani DVD-RIP XVID.QNT.avi 834.666 MB
Gathering some info...

Register and log in Isohunt and see no captcha anymore!

4000 symbols left
Hash E9E65150FCB35F3482FCDF1C1F9A02537473DA51

Related torrents for "Kahaani DVD-RIP XVID QNT"