War.Horse.2011.DVDRip.XviD-XiNG

Size 732.362 MB   0 seeders     Added 2012-03-08 08:09:03

To download or stream you need BitLord. Visit them at BitLord.com
CroSSiNG

presents


War Horse (2011)


http://www.imdb.com/title/tt1568911/

Genre: Drama/History/War 

Language: English

Plot: Young Albert enlists to serve in World War I after his beloved horse is sold to the cavalry. Albert's hopeful journey takes him out of England and across Europe as the war rages on.


Infomation:
Format : AVI
Format/Info : Audio Video Interleave
Format profile : OpenDML
File size : 698 MiB
Duration : 2h 26mn
Overall bit rate : 1 802 Kbps
Writing application : MEncoder SVN-r33823-4.1.2
Writing library : MPlayer
 
Video
ID : 0
Format : xvid
Codec ID : xvid
Duration : 2h 13mn
Bit rate : 1 675 Kbps
Width : 842 pixels
Height : 352 pixels
Display aspect ratio : 16:9
Frame rate : 23.976 fps
Bits/(Pixel*Frame) : 0.273
Stream size : 649 MiB (93%)
 
Audio
ID : 1
Format : MPEG Audio
Codec ID : 55
Codec ID/Hint : MP3
Duration : 2h 26mn
Bit rate : 160 Kbps
Channel(s) : 2 channels
Sampling rate : 48.0 KHz
Compression mode : Lossy
Stream size : 1.89 MiB (0%)
Alignment : Aligned on interleaves
Interleave, duration : 1205 ms (38.47 video frames)
Interleave, preload duration : 115 ms
 

Notes:
A huge thanks to our suppliers who made this early DVD release possible!


DVD quality - see screenshots below:
http://imgur.com/yQXUO
http://imgur.com/ZBDPb
http://imgur.com/DNCRz


Sample:
http://alturl.com/rknwv
War.Horse.2011.DVDRip.XviD-XiNG/War.Horse.2011.DVDRip.XviD-XiNG.part01.rar 83.886 MB
War.Horse.2011.DVDRip.XviD-XiNG/War.Horse.2011.DVDRip.XviD-XiNG.part02.rar 83.886 MB
War.Horse.2011.DVDRip.XviD-XiNG/War.Horse.2011.DVDRip.XviD-XiNG.part03.rar 83.886 MB
Gathering some info...

Register and log in Isohunt and see no captcha anymore!

4000 symbols left
Hash 02beea2a5e5143d04891623529515b7c04523e7b

We have tons of cool stuff like this:

Torrent search:

2011