wwe songs

Size 125.436 MB   0 seeders     Added 2012-03-08 11:02:35

Stream torrent
Starting‥ You need BitLord! Get it from BitLord.com
To download or stream you need BitLord. Visit them at BitLord.com
General
Complete name : E:wwe songs�1 - Voices - Randy Orton - [www.DjMaza.Com].mp3
Format : MPEG Audio
File size : 3.51 MiB
Duration : 3mn 24s
Overall bit rate mode : Variable
Overall bit rate : 143 Kbps
Album : WWE The Music Vol 9[www.DjMaza.Com]
Album/Performer : www.DjMaza.Com
Part/Position : www.DjMaza.Com
Track name : Voices - Randy Orton - [www.DjMaza.Com]
Track name/More : www.DjMaza.Com
Track name/Position : 01
Grouping : www.DjMaza.Com
Original/Album : www.DjMaza.Com
Performer : Randy Orton - [www.DjMaza.Com]
Performer/Url : www.DjMaza.Com
Original/Performer : www.DjMaza.Com
Composer : www.DjMaza.Com
Lyricist : www.DjMaza.Com
Original/Lyricist : www.DjMaza.Com
Conductor : www.DjMaza.Com
Remixed by : www.DjMaza.Com
Publisher : www.DjMaza.Com
Genre : www.DjMaza.Com
Recorded date : 2009
Writing library : LAME3.98
Copyright : www.DjMaza.Com
Service name : www.DjMaza.Com
Service/Url : www.DjMaza.Com
Cover : Yes
Cover type : Cover (front)
Cover MIME : image/jpg
Lyrics : www.DjMaza.Com
Comment : www.DjMaza.Com
Track:Comments : www.DjMaza.Com
Official audio file webpage : www.DjMaza.Com
Official audio source webpage : www.DjMaza.Com
Commercial information : www.DjMaza.Com
URL : www.DjMaza.Com
EpisodeID : www.DjMaza.Com
Catalog Number : www.DjMaza.Com
MusicMatch_Mood : www.DjMaza.Com
www.DjMaza.Com : www.DjMaza.Com
Audio
Format : MPEG Audio
Format version : Version 1
Format profile : Layer 3
Mode : Joint stereo
Mode extension : MS Stereo
Duration : 3mn 24s
Bit rate mode : Variable
Bit rate : 143 Kbps
Minimum bit rate : 32.0 Kbps
Channel(s) : 2 channels
Sampling rate : 44.1 KHz
Compression mode : Lossy
Stream size : 3.49 MiB (99%)
Writing library : LAME3.98
Encoding settings : -m j -V 4 -q 0 -lowpass 17.5 --vbr-new -b 32
General
Complete name : E:wwe songs�2 - I Am Perfection (Dolph Ziggler) [www.DJMaza.Com].mp3
Format : MPEG Audio
File size : 3.99 MiB
Duration : 3mn 19s
Overall bit rate mode : Variable
Overall bit rate : 164 Kbps
Album : A New Day, Volume 10 [www.DJMaza.Com]
Album/Performer : www.DJMaza.Com
Part/Position : 1
Part/Total : 1
Track name : I Am Perfection (Dolph Ziggler) [www.DJMaza.Com]
Track name/More : www.DJMaza.Com
Track name/Position : 2
Track name/Total : 14
Grouping : www.DJMaza.Com
Original/Album : www.DJMaza.Com
Performer : WWE (feat. Cage 9) [www.DJMaza.Com]
Performer/Url : www.DJMaza.Com
Original/Performer : www.DJMaza.Com
Composer : www.DJMaza.Com
Lyricist : www.DJMaza.Com
Original/Lyricist : www.DJMaza.Com
Conductor : www.DJMaza.Com
Remixed by : www.DJMaza.Com
Publisher : www.DJMaza.Com
Genre : www.DJMaza.Com
Recorded date : 2010
Writing library : LAME3.98
Copyright : www.DJMaza.Com
Service name : www.DJMaza.Com
Service/Url : www.DJMaza.Com
Cover : Yes
Cover type : Cover (front)
Cover MIME : image/jpg
Lyrics : www.DJMaza.Com
Comment : www.DJMaza.Com
Track:Comments : www.DJMaza.Com
Official audio file webpage : www.DJMaza.Com
Official audio source webpage : www.DJMaza.Com
Commercial information : www.DJMaza.Com
URL : www.DJMaza.Com
iTunNORM : 00001D63 00001BA8 00007398 00006CAB 0000C35F 00003DAD 00008000 00008000 00000145 00000145
EpisodeID : www.DJMaza.Com
MusicMatch_Mood : www.DJMaza.Com
Audio
Format : MPEG Audio
Format version : Version 1
Format profile : Layer 3
Mode : Joint stereo
Mode extension : MS Stereo
Duration : 3mn 19s
Bit rate mode : Variable
Bit rate : 164 Kbps
Minimum bit rate : 32.0 Kbps
Channel(s) : 2 channels
Sampling rate : 44.1 KHz
Compression mode : Lossy
Stream size : 3.90 MiB (98%)
Writing library : LAME3.98
Encoding settings : -m j -V 3 -q 0 -lowpass 18 --vbr-new -b 32
General
Complete name : E:wwe songs�3 - I Came To Play (The Miz) [www.DJMaza.Com].mp3
Format : MPEG Audio
File size : 6.26 MiB
Duration : 4mn 57s
Overall bit rate mode : Variable
Overall bit rate : 175 Kbps
Album : A New Day, Volume 10 [www.DJMaza.Com]
Album/Performer : www.DJMaza.Com
Part/Position : 1
Part/Total : 1
Track name : I Came To Play (The Miz) [www.DJMaza.Com]
Track name/More : www.DJMaza.Com
Track name/Position : 3
Track name/Total : 14
Grouping : www.DJMaza.Com
Original/Album : www.DJMaza.Com
Performer : WWE (feat. Downstait) [www.DJMaza.Com]
Performer/Url : www.DJMaza.Com
Original/Performer : www.DJMaza.Com
Composer : www.DJMaza.Com
Lyricist : www.DJMaza.Com
Original/Lyricist : www.DJMaza.Com
Conductor : www.DJMaza.Com
Remixed by : www.DJMaza.Com
Publisher : www.DJMaza.Com
Genre : www.DJMaza.Com
Recorded date : 2010
Writing library : LAME3.98
Copyright : www.DJMaza.Com
Service name : www.DJMaza.Com
Service/Url : www.DJMaza.Com
Cover : Yes
Cover type : Cover (front)
Cover MIME : image/jpg
Lyrics : www.DJMaza.Com
Comment : www.DJMaza.Com
Track:Comments : www.DJMaza.Com
Official audio file webpage : www.DJMaza.Com
Official audio source webpage : www.DJMaza.Com
Commercial information : www.DJMaza.Com
URL : www.DJMaza.Com
iTunNORM : 00001C37 00001E13 000083D4 00007F7F 0003A19D 0003A19D 00008000 00008000 000004CE 00000145
EpisodeID : www.DJMaza.Com
MusicMatch_Mood : www.DJMaza.Com
Audio
Format : MPEG Audio
Format version : Version 1
Format profile : Layer 3
Mode : Joint stereo
Mode extension : MS Stereo
Duration : 4mn 57s
Bit rate mode : Variable
Bit rate : 175 Kbps
Minimum bit rate : 32.0 Kbps
Channel(s) : 2 channels
Sampling rate : 44.1 KHz
Compression mode : Lossy
Stream size : 6.18 MiB (99%)
Writing library : LAME3.98
Encoding settings : -m j -V 3 -q 0 -lowpass 18 --vbr-new -b 32
General
Complete name : E:wwe songs�4 - Just Close Your Eyes (Christian) [www.DJMaza.Com].mp3
Format : MPEG Audio
File size : 5.50 MiB
Duration : 4mn 31s
Overall bit rate mode : Variable
Overall bit rate : 167 Kbps
Album : A New Day, Volume 10 [www.DJMaza.Com]
Album/Performer : www.DJMaza.Com
Part/Position : 1
Part/Total : 1
Track name : Just Close Your Eyes (Christian) [www.DJMaza.Com]
Track name/More : www.DJMaza.Com
Track name/Position : 4
Track name/Total : 14
Grouping : www.DJMaza.Com
Original/Album : www.DJMaza.Com
Performer : WWE (feat. Story Of The Year) [www.DJMaza.Com]
Performer/Url : www.DJMaza.Com
Original/Performer : www.DJMaza.Com
Composer : www.DJMaza.Com
Lyricist : www.DJMaza.Com
Original/Lyricist : www.DJMaza.Com
Conductor : www.DJMaza.Com
Remixed by : www.DJMaza.Com
Publisher : www.DJMaza.Com
Genre : www.DJMaza.Com
Recorded date : 2010
Writing library : LAME3.98
Copyright : www.DJMaza.Com
Service name : www.DJMaza.Com
Service/Url : www.DJMaza.Com
Cover : Yes
Cover type : Cover (front)
Cover MIME : image/jpg
Lyrics : www.DJMaza.Com
Comment : www.DJMaza.Com
Track:Comments : www.DJMaza.Com
Official audio file webpage : www.DJMaza.Com
Official audio source webpage : www.DJMaza.Com
Commercial information : www.DJMaza.Com
URL : www.DJMaza.Com
iTunNORM : 00002DAC 000032EA 0000C41F 0000BD83 000007FB 0002F618 00008000 00008000 000000E8 000000E8
EpisodeID : www.DJMaza.Com
MusicMatch_Mood : www.DJMaza.Com
Audio
Format : MPEG Audio
Format version : Version 1
Format profile : Layer 3
Mode : Joint stereo
Mode extension : MS Stereo
Duration : 4mn 31s
Bit rate mode : Variable
Bit rate : 167 Kbps
Minimum bit rate : 32.0 Kbps
Channel(s) : 2 channels
Sampling rate : 44.1 KHz
Compression mode : Lossy
Stream size : 5.41 MiB (98%)
Writing library : LAME3.98
Encoding settings : -m j -V 3 -q 0 -lowpass 18 --vbr-new -b 32
General
Complete name : E:wwe songs�6 - Written In My Face (Sheamus) [www.DJMaza.Com].mp3
Format : MPEG Audio
File size : 4.40 MiB
Duration : 3mn 33s
Overall bit rate mode : Variable
Overall bit rate : 170 Kbps
Album : A New Day, Volume 10 [www.DJMaza.Com]
Album/Performer : www.DJMaza.Com
Part/Position : 1
Part/Total : 1
Track name : Written In My Face (Sheamus) [www.DJMaza.Com]
Track name/More : www.DJMaza.Com
Track name/Position : 6
Track name/Total : 14
Grouping : www.DJMaza.Com
Original/Album : www.DJMaza.Com
Performer : WWE (feat. vocals by Sean Jenness) [www.DJMaza.Com]
Performer/Url : www.DJMaza.Com
Original/Performer : www.DJMaza.Com
Composer : www.DJMaza.Com
Lyricist : www.DJMaza.Com
Original/Lyricist : www.DJMaza.Com
Conductor : www.DJMaza.Com
Remixed by : www.DJMaza.Com
Publisher : www.DJMaza.Com
Genre : www.DJMaza.Com
Released date : UTC www.DJMa a.Com
Recorded date : 2010
Writing library : LAME3.98
Copyright : www.DJMaza.Com
Service name : www.DJMaza.Com
Service/Url : www.DJMaza.Com
Cover : Yes
Cover type : Cover (front)
Cover MIME : image/jpg
Lyrics : www.DJMaza.Com
Comment : www.DJMaza.Com
Official audio file webpage : www.DJMaza.Com
Official audio source webpage : www.DJMaza.Com
Commercial information : www.DJMaza.Com
URL : www.DJMaza.Com
iTunNORM : 000029F2 00002B45 0000BBE8 0000912A 00009563 0001ECB2 00008000 00008000 000000D0 000000D0
EpisodeID : www.DJMaza.Com
MusicMatch_Mood : www.DJMaza.Com
Track:Comments : www.DJMaza.Com
Audio
Format : MPEG Audio
Format version : Version 1
Format profile : Layer 3
Mode : Joint stereo
Mode extension : MS Stereo
Duration : 3mn 33s
Bit rate mode : Variable
Bit rate : 170 Kbps
Minimum bit rate : 32.0 Kbps
Channel(s) : 2 channels
Sampling rate : 44.1 KHz
Compression mode : Lossy
Stream size : 4.32 MiB (98%)
Writing library : LAME3.98
Encoding settings : -m j -V 3 -q 0 -lowpass 18 --vbr-new -b 32
General
Complete name : E:wwe songsAlbumArtSmall.jpg
Format : JPEG
File size : 10.1 KiB
Image
Format : JPEG
Width : 75 pixels
Height : 75 pixels
Chroma subsampling : 4:2:0
Bit depth : 8 bits
Compression mode : Lossy
General
Complete name : E:wwe songsAlbumArt_{09A48941-9423-4BB0-979C-737EDFA9EC05}_Large.jpg
Format : JPEG
File size : 46.3 KiB
Image
Format : JPEG
Width : 200 pixels
Height : 200 pixels
Chroma subsampling : 4:2:0
Bit depth : 8 bits
Compression mode : Lossy
General
Complete name : E:wwe songsAlbumArt_{09A48941-9423-4BB0-979C-737EDFA9EC05}_Small.jpg
Format : JPEG
File size : 9.21 KiB
Image
Format : JPEG
Width : 75 pixels
Height : 75 pixels
Chroma subsampling : 4:2:0
Bit depth : 8 bits
Compression mode : Lossy
General
Complete name : E:wwe songsAlbumArt_{31E11B5C-4E45-4DCC-8CAA-36CBE02D5F75}_Large.jpg
Format : JPEG
File size : 46.3 KiB
Image
Format : JPEG
Width : 200 pixels
Height : 200 pixels
Chroma subsampling : 4:2:0
Bit depth : 8 bits
Compression mode : Lossy
General
Complete name : E:wwe songsAlbumArt_{31E11B5C-4E45-4DCC-8CAA-36CBE02D5F75}_Small.jpg
Format : JPEG
File size : 9.21 KiB
Image
Format : JPEG
Width : 75 pixels
Height : 75 pixels
Chroma subsampling : 4:2:0
Bit depth : 8 bits
Compression mode : Lossy
General
Complete name : E:wwe songsAlbumArt_{332CDDF1-CFC0-437F-A460-388905900C6C}_Large.jpg
Format : JPEG
File size : 44.1 KiB
Image
Format : JPEG
Width : 200 pixels
Height : 200 pixels
Chroma subsampling : 4:2:0
Bit depth : 8 bits
Compression mode : Lossy
General
Complete name : E:wwe songsAlbumArt_{332CDDF1-CFC0-437F-A460-388905900C6C}_Small.jpg
Format : JPEG
File size : 10.1 KiB
Image
Format : JPEG
Width : 75 pixels
Height : 75 pixels
Chroma subsampling : 4:2:0
Bit depth : 8 bits
Compression mode : Lossy
General
Complete name : E:wwe songsAlbumArt_{3C32AC5D-235E-4317-8329-9BC8A0E63D44}_Large.jpg
Format : JPEG
File size : 46.3 KiB
Image
Format : JPEG
Width : 200 pixels
Height : 200 pixels
Chroma subsampling : 4:2:0
Bit depth : 8 bits
Compression mode : Lossy
General
Complete name : E:wwe songsAlbumArt_{3C32AC5D-235E-4317-8329-9BC8A0E63D44}_Small.jpg
Format : JPEG
File size : 9.21 KiB
Image
Format : JPEG
Width : 75 pixels
Height : 75 pixels
Chroma subsampling : 4:2:0
Bit depth : 8 bits
Compression mode : Lossy
General
Complete name : E:wwe songsAlbumArt_{7DB69364-2B32-4F9A-A354-0FE5C2832579}_Large.jpg
Format : JPEG
File size : 44.1 KiB
Image
Format : JPEG
Width : 200 pixels
Height : 200 pixels
Chroma subsampling : 4:2:0
Bit depth : 8 bits
Compression mode : Lossy
General
Complete name : E:wwe songsAlbumArt_{7DB69364-2B32-4F9A-A354-0FE5C2832579}_Small.jpg
Format : JPEG
File size : 10.1 KiB
Image
Format : JPEG
Width : 75 pixels
Height : 75 pixels
Chroma subsampling : 4:2:0
Bit depth : 8 bits
Compression mode : Lossy
General
Complete name : E:wwe songsAlbumArt_{9CF15508-441B-4EA3-8339-BC7AD3B6B02A}_Large.jpg
Format : JPEG
File size : 46.3 KiB
Image
Format : JPEG
Width : 200 pixels
Height : 200 pixels
Chroma subsampling : 4:2:0
Bit depth : 8 bits
Compression mode : Lossy
General
Complete name : E:wwe songsAlbumArt_{9CF15508-441B-4EA3-8339-BC7AD3B6B02A}_Small.jpg
Format : JPEG
File size : 9.21 KiB
Image
Format : JPEG
Width : 75 pixels
Height : 75 pixels
Chroma subsampling : 4:2:0
Bit depth : 8 bits
Compression mode : Lossy
General
Complete name : E:wwe songsAlbumArt_{AF391370-B12E-4900-862E-8236755FB69E}_Large.jpg
Format : JPEG
File size : 44.1 KiB
Image
Format : JPEG
Width : 200 pixels
Height : 200 pixels
Chroma subsampling : 4:2:0
Bit depth : 8 bits
Compression mode : Lossy
General
Complete name : E:wwe songsAlbumArt_{AF391370-B12E-4900-862E-8236755FB69E}_Small.jpg
Format : JPEG
File size : 10.1 KiB
Image
Format : JPEG
Width : 75 pixels
Height : 75 pixels
Chroma subsampling : 4:2:0
Bit depth : 8 bits
Compression mode : Lossy
General
Complete name : E:wwe songsAlbumArt_{B5D61AC8-BD1F-45C4-A63D-BBB46B362986}_Large.jpg
Format : JPEG
File size : 46.3 KiB
Image
Format : JPEG
Width : 200 pixels
Height : 200 pixels
Chroma subsampling : 4:2:0
Bit depth : 8 bits
Compression mode : Lossy
General
Complete name : E:wwe songsAlbumArt_{B5D61AC8-BD1F-45C4-A63D-BBB46B362986}_Small.jpg
Format : JPEG
File size : 9.21 KiB
Image
Format : JPEG
Width : 75 pixels
Height : 75 pixels
Chroma subsampling : 4:2:0
Bit depth : 8 bits
Compression mode : Lossy
General
Complete name : E:wwe songsAlbumArt_{D341A76E-90BA-4EAC-958B-1BEC98399CC2}_Large.jpg
Format : JPEG
File size : 46.3 KiB
Image
Format : JPEG
Width : 200 pixels
Height : 200 pixels
Chroma subsampling : 4:2:0
Bit depth : 8 bits
Compression mode : Lossy
General
Complete name : E:wwe songsAlbumArt_{D341A76E-90BA-4EAC-958B-1BEC98399CC2}_Small.jpg
Format : JPEG
File size : 9.21 KiB
Image
Format : JPEG
Width : 75 pixels
Height : 75 pixels
Chroma subsampling : 4:2:0
Bit depth : 8 bits
Compression mode : Lossy
General
Complete name : E:wwe songsAlbumArt_{DB09C54C-1F66-44BE-8898-1500C9D74DCE}_Large.jpg
Format : JPEG
File size : 44.1 KiB
Image
Format : JPEG
Width : 200 pixels
Height : 200 pixels
Chroma subsampling : 4:2:0
Bit depth : 8 bits
Compression mode : Lossy
General
Complete name : E:wwe songsAlbumArt_{DB09C54C-1F66-44BE-8898-1500C9D74DCE}_Small.jpg
Format : JPEG
File size : 10.1 KiB
Image
Format : JPEG
Width : 75 pixels
Height : 75 pixels
Chroma subsampling : 4:2:0
Bit depth : 8 bits
Compression mode : Lossy
General
Complete name : E:wwe songsBatista (I Walk Alone) [www.DJMaza.Com].mp3
Format : MPEG Audio
File size : 6.14 MiB
Duration : 4mn 8s
Overall bit rate mode : Variable
Overall bit rate : 205 Kbps
Album : WWE The Music Themes
Album/Performer : www.DJMaza.Com
Track name : Batista (I Walk Alone) [www.DJMaza.Com]
Track name/More : www.DJMaza.Com
Track name/Position : 8
Grouping : www.DJMaza.Com
Original/Album : www.DJMaza.Com
Performer : WWE [www.DJMaza.Com]
Performer/Url : www.DJMaza.Com
Original/Performer : www.DJMaza.Com
Composer : www.DJMaza.Com
Lyricist : www.DJMaza.Com
Original/Lyricist : www.DJMaza.Com
Conductor : www.DJMaza.Com
Remixed by : www.DJMaza.Com
Publisher : www.DJMaza.Com
Genre : Soundtrack
Released date : UTC www.DJMa a.Com
Recorded date : 2007
Writing library : LAME3.97
BPM : www.DJMaza.Com
ISRC : www.DJMaza.Com
Copyright : www.DJMaza.Com
Service name : www.DJMaza.Com
Service/Url : www.DJMaza.Com
Cover : Yes
Cover type : Cover (front)
Cover MIME : image/jpg
Lyrics : www.DJMaza.Com
Comment : www.DJMaza.Com / www.DJMaza.Com
Official audio file webpage : www.DJMaza.Com
Official audio source webpage : www.DJMaza.Com
C

image
image
<img class="lazyjs" src="//kastatic.com/images/blank.gif" data-original="http://images.sodahead.
01 - Voices - Randy Orton - [www.DjMaza.Com].mp3 3.677 MB
02 - I Am Perfection (Dolph Ziggler) [www.DJMaza.Com].mp3 4.182 MB
03 - I Came To Play (The Miz) [www.DJMaza.Com].mp3 6.567 MB
Gathering some info...

Register and log in Isohunt and see no captcha anymore!

4000 symbols left
Hash 406D2BCD9A26F38C86C05A6E01C23812D7217B13

Related torrents for "wwe songs"