Raaz 3 Songs

Size 27.909 MB   0 seeders     Added 2012-03-08 11:02:43

Stream torrent
Starting‥ You need BitLord! Get it from 1BitLord.com
To download or stream you need BitLord. Visit them at BitLord.com
General
Complete name :Raaz 3 SongsBas Ek Nazar Raaz 3.mp3
Format : MPEG Audio
File size : 7.12 MiB
Duration : 3mn 2s
Overall bit rate mode : Constant
Overall bit rate : 320 Kbps
Track name : Bas Ek Nazar Raaz 3 - www.Freshsongs.net
Recorded date : 2012
Writing library : LAME3.98
Cover : Yes
Cover description : Freshsongs122.jpg
Cover MIME : image/jpeg

Audio
Format : MPEG Audio
Format version : Version 1
Format profile : Layer 3
Duration : 3mn 3s
Bit rate mode : Constant
Bit rate : 320 Kbps
Channel(s) : 2 channels
Sampling rate : 44.1 KHz
Compression mode : Lossy
Stream size : 6.98 MiB (98%)
Writing library : LAME3.98
Encoding settings : -m s -V 4 -q 3 -lowpass 20.5

General
Complete name :Raaz 3 SongsFarishta (Raaz 3) (2012).mp3
Format : MPEG Audio
File size : 9.03 MiB
Duration : 3mn 56s
Overall bit rate mode : Constant
Overall bit rate : 320 Kbps
Album : Raaz 3
Performer : Hitesh
Genre : New
Writing library : LAME3.98.2

Audio
Format : MPEG Audio
Format version : Version 1
Format profile : Layer 3
Mode : Joint stereo
Mode extension : MS Stereo
Duration : 3mn 56s
Bit rate mode : Constant
Bit rate : 320 Kbps
Channel(s) : 2 channels
Sampling rate : 44.1 KHz
Compression mode : Lossy
Stream size : 9.02 MiB (100%)
Writing library : LAME3.98.2

General
Complete name : Raaz 3 SongsZindagi Ek Bahar (Raaz3).mp3
Format : MPEG Audio
File size : 10.4 MiB
Duration : 4mn 33s
Overall bit rate mode : Constant
Overall bit rate : 320 Kbps
Album : Raaz 3
Performer : Hitesh
Genre : New
Recorded date : 2012
Writing library : LAME3.98.2

Audio
Format : MPEG Audio
Format version : Version 1
Format profile : Layer 3
Mode : Joint stereo
Duration : 4mn 33s
Bit rate mode : Constant
Bit rate : 320 Kbps
Channel(s) : 2 channels
Sampling rate : 44.1 KHz
Compression mode : Lossy
Stream size : 10.4 MiB (100%)
Writing library : LAME3.98.2
Bas Ek Nazar Raaz 3.mp3 7.465 MB
Farishta (Raaz 3) (2012).mp3 9.464 MB
Zindagi Ek Bahar (Raaz3).mp3 10.935 MB
Gathering some info...

Register and log in Isohunt and see no captcha anymore!

4000 symbols left
Hash F8959600D30E3F7414B3ABED4CF83629064976BC

Related torrents for "Raaz 3 Songs"

Torrent search:

2012