imdb
rating

7.2
The Muppets

The Muppets (2011)

Comedy, Music, Family

Full description

The Muppets[2011]ENG[BRRip]XviD-RedDragon

Size 787.839 MB   0 seeders     Added 2012-03-08 13:10:09

Stream torrent
Starting‥ You need BitLord! Get it from 1BitLord.com
To download or stream you need BitLord. Visit them at BitLord.com
[b]Poster.\r\n\r\n[img]image[/img]\r\n\r\n\r\nPlot.\r\n\r\nWhen 3 muppet fans learn that Tex Richman wants to drill under the muppet theater for oil Gary, Mary and Walter set out to find the muppets who have been split up for years so that they can put on one last show and save the muppet theater. Kermit now lives in his own mansion depressed in Hollywood, Gonzo is a high class plumber at Gonzo's Royal Flush, Fozzie performs with a tribute band called The Moopets , Miss Piggy is the plus-size fashion editor at Vogue Paris, and Animal is at a celebrity anger management rehab center in Santa Barbara\r\n\r\n\r\nGeneral.\r\n\r\nComplete name                    : The Muppets[2011]ENG[BRRip]XviD-{RedDragon}.avi\r\nFormat                           : .avi\r\nFormat profile                   : Base Media / Version 2\r\nCodec ID                         : mp42\r\nFile size                        : 751 MiB\r\nDuration                         : 1h 42mn\r\nOverall bit rate                 : 1 023 Kbps\r\nEncoded date                     : UTC 2012-03-08 03:45:38\r\nIMDB Link                           : http://www.imdb.com/title/tt1204342/\r\nIMDB Rating                       : 7.7/10\r\n\r\n\r\nVideo.\r\n\r\nID                               : 1\r\nFormat                           : AVC\r\nFormat/Info                      : Advanced Video Codec\r\nFormat profile                   : Main@L3.0\r\nFormat settings, CABAC           : Yes\r\nFormat settings, ReFrames        : 4 frames\r\nCodec ID                         : avc1\r\nCodec ID/Info                    : Advanced Video Coding\r\nDuration                         : 1h 42mn\r\nBit rate mode                    : Variable\r\nBit rate                         : 857 Kbps\r\nWidth                            : 640 pixels\r\nHeight                           : 352 pixels\r\nDisplay aspect ratio             : 16:9\r\nFrame rate mode                  : Variable\r\nFrame rate                       : 23.976 fps\r\nMinimum frame rate               : 23.974 fps\r\nChroma subsampling               : 4:2:0\r\nBit depth                        : 8 bits\r\nScan type                        : Progressive\r\nBits/(Pixel*Frame)               : 0.159\r\nStream size                      : 630 MiB (84%)\r\nWriting library                  : x264 core 112\r\n\r\n\r\nAudio.\r\n\r\nID                               : 2\r\nFormat                           : AAC\r\nFormat/Info                      : Advanced Audio Codec\r\nFormat version                   : Version 4\r\nFormat profile                   : LC\r\nFormat settings, SBR             : No\r\nCodec ID                         : 40\r\nDuration                         : 1h 42mn\r\nBit rate mode                    : Variable\r\nBit rate                         : 160 Kbps\r\nMaximum bit rate                 : 201 Kbps\r\nChannel(s)                       : 2 channels\r\nChannel positions                : Front: L R\r\nSampling rate                    : 48.0 KHz\r\nStream size                      : 117 MiB (16%)\r\n\r\n\r\n[img]image[/img]\r\n\r\n[/b]
FACEBOOK FAN PAGE .txt 224 B
RedDragon .txt 3.262 KB
The Muppets[2011]ENG[BRRip]XviD-{RedDragon}.avi 787.835 MB
Gathering some info...

Register and log in Isohunt and see no captcha anymore!

4000 symbols left
Hash 03AD068BD8CAE22CD0402A22B030C7F08E4D4752

Related torrents for "The Muppets[2011]ENG[BRRip]XviD-RedDragon"

Torrent search:

english bd 2011