imdb
rating

4.3
Demons Never Die

Demons Never Die (2011)

Horror

Full description
quality   dvdrip x264 bd fullhd dvdr

Demons Never Die (2011) DVD5(dutch subs)NLT-Release

Size 4.698 GB   0 seeders     Added 2012-03-10 10:41:13

Stream torrent
Starting‥ You need BitLord! Get it from BitLord.com
To download or stream you need BitLord. Visit them at BitLord.com
IMDb: http://www.imdb.com/title/tt1767382/ ------------------------------------------- Silent House (2012) DVDScR_XviD.AC3 - ACNX ------------------------------------------ Sample........................: Yes Sample Size...................: 4.84 MiB ---------------------------------------- Details: ------- Video ID : 0 Format : MPEG-4 Visual Format profile : AdvancedSimple@L5 Format settings, BVOP : Yes Format settings, QPel : No Format settings, GMC : No warppoints Format settings, Matrix : Custom Codec ID : XVID Codec ID/Hint : XviD Duration : 1h 25mn Bit rate : 1 625 Kbps Width : 720 pixels Height : 304 pixels Display aspect ratio : 2.35:1 Frame rate : 23.976 fps Resolution : 24 bits Colorimetry : 4:2:0 Scan type : Progressive Bits/(Pixel*Frame) : 0.310 Stream size : 690 MiB (99%) Writing library : XviD 58 Audio ID : 1 Format : AC-3 Format/Info : Audio Coding 3 Codec ID : 2000 Duration : 1h 25mn Bit rate mode : Constant Bit rate : 192 Kbps Channel(s) : 2 channels Channel positions : L R Sampling rate : 48.0 KHz Stream size : 147 MiB (11%) Alignment : Aligned on interleaves Interleave, duration : 64 ms (1.53 video frames) Interleave, preload duration : 192 ms ----------------------------------------- Plot: ---- Trapped inside her family's lakeside retreat, a young woman finds she is unable to contact the outside world as events become increasingly ominous in and around the house. --------------------------------------------------- Screenshots: ----------- -------------------
Demons Never Die (2011) DVD5(dutch subs)NLT-Release/Demons Never Die (2011) DVD5(dutch subs)NLT-Release.txt 1.804 KB
Demons Never Die (2011) DVD5(dutch subs)NLT-Release/Demons Never Die.jpg 24.919 KB
Demons Never Die (2011) DVD5(dutch subs)NLT-Release/Demons.Never.Die.2011.CUSTOM.NL/VIDEO_TS/VIDEO_TS.BUP 6.144 KB
Gathering some info...

Register and log in Isohunt and see no captcha anymore!

4000 symbols left
Hash 14b77f24f4217c55db0a34a482914f80012c658a

Related torrents for "Demons Never Die (2011) DVD5(dutch subs)NLT-Release"

Torrent search:

subs german dvdr 2011