Enrique Iglesias - Solo Me Importas Tu (h264mp4)

Size 80.376 MB   2 seeders     Added 2012-03-12 01:30:33

Stream torrent
Starting‚Ä• You need BitLord! Get it from 1BitLord.com
To download or stream you need BitLord. Visit them at BitLord.com
General
Format : MPEG-4
Format profile : Base Media
Codec ID : isom
File size : 76.7 MiB
Duration : 3mn 31s
Overall bit rate : 3 042 Kbps
Encoded date : UTC 2012-03-07 16:16:57
Tagged date : UTC 2012-03-07 16:16:57
Video
ID : 1
Format : AVC
Format/Info : Advanced Video Codec
Format profile : High@L3.0
Format settings, CABAC : Yes
Format settings, ReFrames : 2 frames
Codec ID : avc1
Codec ID/Info : Advanced Video Coding
Duration : 3mn 31s
Bit rate mode : Variable
Bit rate : 2 966 Kbps
Maximum bit rate : 7 060 Kbps
Width : 720 pixels
Height : 480 pixels
Display aspect ratio : 4:3
Original display aspect ratio : 4:3
Frame rate mode : Constant
Frame rate : 25.000 fps
Standard : NTSC
Color space : YUV
Chroma subsampling : 4:2:0
Bit depth : 8 bits
Scan type : Progressive
Bits/(Pixel*Frame) : 0.343
Stream size : 74.8 MiB (98%)
Audio
ID : 2
Format : AAC
Format/Info : Advanced Audio Codec
Format profile : LC
Codec ID : 40
Duration : 3mn 31s
Bit rate mode : Variable
Bit rate : 66.15 Kbps
Maximum bit rate : 78.7 Kbps
Channel(s) : 2 channels
Channel positions : Front: L R
Sampling rate : 48.0 KHz
Compression mode : Lossy
Stream size : 1.69 MiB (2%)
 
EnriqueIglesias-SoloMeImportasTu-musicvideos-hq.net.mp4 80.376 MB
Gathering some info...

Register and log in Isohunt and see no captcha anymore!

4000 symbols left
Hash 8847BD13F6BB54587C96D852FD1A9DE0BE7610C0