Grown Ups Srpski prevod

Size 720.712 MB   0 seeders     Added 2012-03-12 03:10:23

10
To download or stream you need BitLord. Visit them at BitLord.com
General
Complete name : Grown.Ups.2010.DVDRip.XviD-ETRG.avi
Format : AVI
Format/Info : Audio Video Interleave
File size : 703 MiB
Duration : 1h 38mn
Overall bit rate : 1 001 Kbps
Writing library : VirtualDub build 32618/release
Video
ID : 0
Format : MPEG-4 Visual
Format profile : Advanced Simple@L5
Format settings, BVOP : Yes
Format settings, QPel : No
Format settings, GMC : No warppoints
Format settings, Matrix : Default (H.263)
Muxing mode : Packed bitstream
Codec ID : XVID
Codec ID/Hint : XviD
Duration : 1h 38mn
Bit rate : 873 Kbps
Width : 608 pixels
Height : 320 pixels
Display aspect ratio : 1.900
Frame rate : 25.000 fps
Color space : YUV
Chroma subsampling : 4:2:0
Bit depth : 8 bits
Scan type : Progressive
Compression mode : Lossy
Bits/(Pixel*Frame) : 0.180
Stream size : 613 MiB (87%)
Writing library : XviD 1.2.1 (UTC 2008-12-04)
Audio
ID : 1
Format : MPEG Audio
Format version : Version 1
Format profile : Layer 3
Codec ID : 55
Codec ID/Hint : MP3
Duration : 1h 38mn
Bit rate mode : Variable
Bit rate : 112 Kbps
Channel(s) : 2 channels
Sampling rate : 48.0 KHz
Compression mode : Lossy
Stream size : 80.8 MiB (12%)
Alignment : Aligned on interleaves
Interleave, duration : 24 ms (0.60 video frame)
Interleave, preload duration : 496 ms
Writing library : LAME3.98r
Encoding settings : -m s -V 4 -q 3 -lowpass 15.6 --abr 112
 
Grown Ups Srpski prevod.part1.rar 209.715 MB
Grown Ups Srpski prevod.part2.rar 209.715 MB
Grown Ups Srpski prevod.part3.rar 209.715 MB
Gathering some info...

Register and log in Isohunt and see no captcha anymore!

4000 symbols left
Hash DDA30184C27A2BC3CC2B2250433CF7F059E12C5B