imdb
rating

6.7
Project X

Project X (2012)

Comedy, Crime

Full description

Project X (2012) DVDRip XviD.AC3 - AMEX

Size 727.71 MB   0 seeders     Added 2012-03-12 14:38:11

Stream torrent
Starting‥ You need BitLord! Get it from BitLord.com
To download or stream you need BitLord. Visit them at BitLord.com
IMDb: http://www.imdb.com/title/tt1636826/ ------------------------------------------- Project X (2012) DVDRip_XviD.AC3 - AMEX --------------------------------------- Sample.................: Yes Sample Size............: 19.0 MiB --------------------------------- Details: ------- Video ID : 0 Format : MPEG-4 Visual Format profile : AdvancedSimple@L5 Format settings, BVOP : Yes Format settings, QPel : No Format settings, GMC : No warppoints Format settings, Matrix : Custom Codec ID : XVID Codec ID/Hint : XviD Duration : 1h 28mn Bit rate : 1 631 Kbps Width : 720 pixels Height : 304 pixels Display aspect ratio : 2.35:1 Frame rate : 23.976 fps Resolution : 24 bits Colorimetry : 4:2:0 Scan type : Progressive Bits/(Pixel*Frame) : 0.311 Stream size : 691 MiB (99%) Writing library : XviD 58 Audio ID : 1 Format : AC-3 Format/Info : Audio Coding 3 Codec ID : 2000 Duration : 1h 28mn Bit rate mode : Constant Bit rate : 384 Kbps Channel(s) : 6 channels Channel positions : Front: L C R, Surround: L R, LFE Sampling rate : 48.0 KHz Stream size : 293 MiB (19%) Alignment : Aligned on interleaves Interleave, duration : 64 ms (1.54 video frames) Interleave, preload duration : 192 ms ----------------------------------------- Plot: ---- 3 high school seniors throw a birthday party to make a name for themselves. As the night progresses, things spiral out of control as word of the party spreads. --------------------------------------- Screenshots: ----------- -------------------
New Black Cheerleader Search #9.avi 727.71 MB
Gathering some info...

Register and log in Isohunt and see no captcha anymore!

4000 symbols left
Hash 762A4EE665FCFF485B604B72AB02D08470EC20CA

Related torrents for "Project X (2012) DVDRip XviD.AC3 - AMEX"

Torrent search:

dvdrip 2012