imdb
rating

5.2
Urban Explorer

Urban Explorer (2011)

Horror, Thriller

Full description
quality   bd dvdrip dvdr x264 hd

Urban Explorer 2011 BRRip XviD Ac3 Feel Free avi

Size 1.047 GB   0 seeders     Added 2012-03-12 20:10:05

Stream torrent
Starting‥ You need BitLord! Get it from BitLord.com
To download or stream you need BitLord. Visit them at BitLord.com
[CENTER]Looking for fast download speeds come join http://dream-torrents.com for all the latest releases, with friendly staff online radio and games and much much more.\r\n-\r\n-\r\n.Genre: Horror | Thriller\r\nLanguage:English\r\nIMDb:http://www.imdb.com/title/tt1642665/\r\nSource:720p.BluRay.x264-7SinS Thanks!\r\nSubtitles:NA\r\nEncoder:Tony\r\n\r\nFormat : AVI\r\nFormat/Info : Audio Video Interleave\r\nFile size : 999 MiB\r\nDuration : 1h 34mn\r\nOverall bit rate : 1 479 Kbps\r\n\r\nVideo\r\nID : 0\r\nFormat : MPEG-4 Visual\r\nFormat profile : Advanced Simple@L5\r\nFormat settings, BVOP : 1\r\nFormat settings, QPel : No\r\nFormat settings, GMC : No warppoints\r\nFormat settings, Matrix : Default (H.263)\r\nCodec ID : XVID\r\nCodec ID/Hint : XviD\r\nDuration : 1h 34mn\r\nBit rate : 1 022 Kbps\r\nWidth : 640 pixels\r\nHeight : 272 pixels\r\nDisplay aspect ratio : 2.35:1\r\nFrame rate : 23.976 fps\r\nColor space : YUV\r\nChroma subsampling : 4:2:0\r\nBit depth : 8 bits\r\nScan type : Progressive\r\nCompression mode : Lossy\r\nBits/(Pixel*Frame) : 0.245\r\nStream size : 690 MiB (69%)\r\nWriting library : XviD 1.2.1 (UTC 2008-12-04)\r\n\r\nAudio\r\nID : 1\r\nFormat : AC-3\r\nFormat/Info : Audio Coding 3\r\nMode extension : CM (complete main)\r\nCodec ID : 2000\r\nDuration : 1h 34mn\r\nBit rate mode : Constant\r\nBit rate : 448 Kbps\r\nChannel(s) : 6 channels\r\nChannel positions : Front: L C R, Side: L R, LFE\r\nSampling rate : 48.0 KHz\r\nBit depth : 16 bits\r\nCompression mode : Lossy\r\nStream size : 302 MiB (30%)\r\nAlignment : Aligned on interleaves\r\nInterleave, duration : 42 ms (1.00 video frame)\r\nInterleave, preload duration : 512 ms\r\n\r\n\r\nPlot:\r\nAnxious to explore the mysterious hidden world under metropolitan Berlin, an international group of four urban explorers hires a local guide\r\n\r\nTRAILER:\r\nhttp://www.youtube.com/watch?v=zTqS5o6kg...re=related\r\n\r\nGreets:\r\n\r\nCRYS,IMAGINE,LKRG,FXG,3Li,FLAWL3SS,TA,iLLUSiON,EMBER,HOPE,GooN,BBnRG,NOGRP,ETRG,BHRG,iLLUMiNATi,MiSTERE.ViSiON,DTRG SAFCuk009,LU,TheFalcon007,MYSTiC,PrisM,Noir,WBZ,LAP,Rx,Kingdom,SAFCuk009+Fabreezy,HDLiTE,TWiZTED,ExtraTorrentRG.ELEKTRI4KA,MAGNAT,CM8\r\nAnd to all the other p2p grps past and present\r\n[/CENTER]
Urban Explorer 2011 BRRip XviD Ac3 Feel-Free.avi 1.047 GB
Gathering some info...

Register and log in Isohunt and see no captcha anymore!

4000 symbols left
Hash 854681EA01E11E967218E007379F49FD7A0890F2

Related torrents for "Urban Explorer 2011 BRRip XviD Ac3 Feel Free avi"

Torrent search:

bd 2011