imdb
rating

4.6
ATM

ATM (2012)

Horror, Thriller

Full description
quality   dvdrip hd x264 screener dvdr

ATM 2012 HDRiP AC3-5 1 XviD-SiC.torrent

Size 1.422 GB   0 seeders     Added 2012-03-12 20:42:31

Stream torrent
Starting‥ You need BitLord! Get it from 1BitLord.com
To download or stream you need BitLord. Visit them at BitLord.com
[img]image[/img]

IMDB Link: 
http://www.imdb.com/title/tt1603257/

Description:
On a late night visit to an ATM, three co-workers end up in a desperate 
fight for their lives when they become trapped by an unknown man.

MediaInfo:
General
Complete name                            : ATM.2012.HDRiP.AC3-5.1.XviD-
SiC.avi
Format                                   : AVI
Format/Info                              : Audio Video Interleave
File size                                : 1.38 GiB
Duration                                 : 1h 30mn
Overall bit rate                         : 2 167 Kbps

Video
ID                                       : 0
Format                                   : MPEG-4 Visual
Format profile                           : Advanced Simple@L5
Format settings, BVOP                    : 2
Format settings, QPel                    : No
Format settings, GMC                     : No warppoints
Format settings, Matrix                  : Default (H.263)
Muxing mode                              : Packed bitstream
Codec ID                                 : XVID
Codec ID/Hint                            : XviD
Duration                                 : 1h 30mn
Bit rate                                 : 1 775 Kbps
Width                                    : 720 pixels
Height                                   : 400 pixels
Display aspect ratio                     : 16:9
Frame rate                               : 23.976 fps
Color space                              : YUV
Chroma subsampling                       : 4:2:0
Bit depth                                : 8 bits
Scan type                                : Progressive
Compression mode                         : Lossy
Bits/(Pixel*Frame)                       : 0.257
Stream size                              : 1.12 GiB (82%)
Writing library                          : XviD 1.1.2 (UTC 2006-11-01)

Audio
ID                                       : 1
Format                                   : AC-3
Format/Info                              : Audio Coding 3
Mode extension                           : CM (complete main)
Codec ID                                 : 2000
Duration                                 : 1h 30mn
Bit rate mode                            : Constant
Bit rate                                 : 384 Kbps
Channel(s)                               : 6 channels
Channel positions                        : Front: L C R, Side: L R, LFE
Sampling rate                            : 48.0 KHz
Bit depth                                : 16 bits
Compression mode                         : Lossy
Stream size                              : 248 MiB (18%)
Alignment                                : Aligned on interleaves
Interleave, duration                     : 64 ms (1.53 video frames)
Interleave, preload duration             : 192 ms
Title                                    : atm

Screenshots:

[img]image[/img]
[img]image[/img]
[img]image[/img]
[img]image[/img]	
ATM 2012 HDRiP AC3-5 1 XviD-SiC/ATM 2012 HDRiP AC3-5 1 XviD-SiC.avi 1.422 GB
ATM 2012 HDRiP AC3-5 1 XviD-SiC/MOVIE.nfo 4.858 KB
ATM 2012 HDRiP AC3-5 1 XviD-SiC/Subs[ENG].srt 136.693 KB
Gathering some info...

Register and log in Isohunt and see no captcha anymore!

4000 symbols left
Hash 687f7fd1db82920aff4b59f213ffe5e92397e54e

Related torrents for "ATM 2012 HDRiP AC3-5 1 XviD-SiC.torrent"

Torrent search:

hd 2012