imdb
rating

5.9
A Thousand Words

A Thousand Words (2012)

Comedy, Drama

Full description

A Thousand Words (2012) 1080p BDRiP XViD AC3 FLAWL3SS

Size 772.791 MB   0 seeders     Added 2012-03-13 00:07:30

Stream torrent
Starting‥ You need BitLord! Get it from BitLord.com
To download or stream you need BitLord. Visit them at BitLord.com
A Thousand Words (2012) 1080p BDRiP XViD AC3 FLAWL3SS
Format                           : AVI
Format/Info                      : Audio Video Interleave
Format profile                   : OpenDML
Overall bit rate                 : 1 698 Kbps
Writing application              : VirtualDubMod 1.5.10.2 (build 2542/release)
Writing library                  : VirtualDubMod build 2542/release
Original source form             : MAX TORRENTZ
Copyright                        : SIGISMUNT

Video
ID                               : 0
Format                           : MPEG-4 Visual
Format profile                   : AdvancedSimple@L5
Format settings, BVOP            : Yes
Format settings, QPel            : No
Format settings, GMC             : No warppoints
Format settings, Matrix          : Default (H.263)
Codec ID                         : XVID
Codec ID/Hint                    : XviD
Bit rate                         : 1 245 Kbps
Width                            : 720 pixels
Height                           : 384 pixels
Display aspect ratio             : 1.875
Frame rate                       : 23.976 fps
Resolution                       : 24 bits
Colorimetry                      : 4:2:0
Scan type                        : Progressive
Bits/(Pixel*Frame)               : 0.188
Stream size                      : 983 MiB (73%)
Writing library                  : XviD 1.2.1 (UTC 2008-12-04)

Audio
ID                               : 1
Format                           : AC-3
Format/Info                      : Audio Coding 3
Codec ID                         : 2000
Duration                         : 1h 50mn
Bit rate mode                    : Constant
Bit rate                         : 448 Kbps
Channel(s)                       : 6 channels
Channel positions                : Front: L C R, Surround: L R, LFE
Sampling rate                    : 48.0 KHz
Stream size                      : 354 MiB (26%)
Alignment                        : Aligned on interleaves
Interleave, duration             : 64 ms (1.53 video frames)
Interleave, preload duration     : 192 ms


Source: DVD (perfect a/v/sync quality,sample included)
This torrent is not seedbox supported,please seed it to the MAX
A Thousand Words (2012) 1080p BDRiP XViD AC3 FLAWL3SS/A Thousand Words (2012) 1080p BDRiP XViD AC3 FLAWL3SS.avi 772.65 MB
A Thousand Words (2012) 1080p BDRiP XViD AC3 FLAWL3SS/MOVIE.nfo 4.858 KB
A Thousand Words (2012) 1080p BDRiP XViD AC3 FLAWL3SS/Subs[ENG].srt 136.693 KB
Gathering some info...

Register and log in Isohunt and see no captcha anymore!

4000 symbols left
Hash 360586ba6c47f0481cf8f3a320b4a2def63a4c25

Related torrents for "A Thousand Words (2012) 1080p BDRiP XViD AC3 FLAWL3SS"

Torrent search:

2012 fullhd bd