Zoe - Besame Mucho (h264mp4)

Size 151.921 MB   6 seeders     Added 2012-03-14 02:39:35

Stream torrent
Starting‥ You need BitLord! Get it from BitLord.com
To download or stream you need BitLord. Visit them at BitLord.com
General
Format : MPEG-4
Format profile : Base Media
Codec ID : isom
File size : 145 MiB
Duration : 6mn 30s
Overall bit rate : 3 114 Kbps
Encoded date : UTC 2012-03-11 23:41:58
Tagged date : UTC 2012-03-11 23:41:58
Video
ID : 1
Format : AVC
Format/Info : Advanced Video Codec
Format profile : High@L3.0
Format settings, CABAC : Yes
Format settings, ReFrames : 2 frames
Codec ID : avc1
Codec ID/Info : Advanced Video Coding
Duration : 6mn 30s
Bit rate mode : Variable
Bit rate : 3 047 Kbps
Maximum bit rate : 11.3 Mbps
Width : 720 pixels
Height : 480 pixels
Display aspect ratio : 16:9
Original display aspect ratio : 16:9
Frame rate mode : Constant
Frame rate : 23.976 fps
Standard : NTSC
Color space : YUV
Chroma subsampling : 4:2:0
Bit depth : 8 bits
Scan type : Progressive
Bits/(Pixel*Frame) : 0.368
Stream size : 142 MiB (98%)
Audio
ID : 2
Format : AAC
Format/Info : Advanced Audio Codec
Format profile : LC
Codec ID : 40
Duration : 6mn 30s
Bit rate mode : Variable
Bit rate : 63.0 Kbps
Maximum bit rate : 79.3 Kbps
Channel(s) : 2 channels
Channel positions : Front: L R
Sampling rate : 44.1 KHz
Compression mode : Lossy
Stream size : 2.93 MiB (2%)
 
Zoe-BesameMucho-musicvideos-hq.net.mp4 151.921 MB
Gathering some info...

Register and log in Isohunt and see no captcha anymore!

4000 symbols left
Hash 71F666C4987DBDE81B095D950CC398E95D6F37B7