The Grey 2012 DVDSCR XviD - NO WATERMARK - INFERNO.torrent

Size 1.391 GB   0 seeders     Added 2012-03-14 02:56:55

Stream torrent
Starting‚Ä• You need BitLord! Get it from BitLord.com
To download or stream you need BitLord. Visit them at BitLord.com
Screens:
 
image 
image 
image 
image

ScreenCaps:
 
image

The Grey 2012 DVDSCR XviD - NO WATERMARK - INFERNO
Format                           : AVI
Format/Info                      : Audio Video Interleave
Format profile                   : OpenDML
File size                        : 1.35 GiB
Duration                         : 1h 57mn
Overall bit rate                 : 2 049 Kbps
Writing application              : VirtualDubMod 1.5.10.2 (build 
2542/release)
Writing library                  : VirtualDubMod build 2542/release
Original source form             : MAX TORRENTZ
Copyright                        : SIGISMUNT

Video
ID                               : 0
Format                           : MPEG-4 Visual
Format profile                   : AdvancedSimple@L5
Format settings, BVOP            : Yes
Format settings, QPel            : No
Format settings, GMC             : No warppoints
Format settings, Matrix          : Custom
Codec ID                         : XVID
Codec ID/Hint                    : XviD
Duration                         : 1h 57mn
Bit rate                         : 1 862 Kbps
Width                            : 720 pixels
Height                           : 304 pixels
Display aspect ratio             : 2.35:1
Frame rate                       : 23.976 fps
Resolution                       : 24 bits
Colorimetry                      : 4:2:0
Scan type                        : Progressive
Bits/(Pixel*Frame)               : 0.355
Stream size                      : 1.52 GiB (91%)
Writing library                  : XviD 1.2.0.dev47 (UTC 2006-11-01)

Audio
ID                               : 1
Format                           : AC-3
Format/Info                      : Audio Coding 3
Codec ID                         : 2000
Duration                         : 1h 57mn
Bit rate mode                    : Constant
Bit rate                         : 192 Kbps
Channel(s)                       : 2 channels
Channel positions                : L R
Sampling rate                    : 48.0 KHz
Stream size                      : 152 MiB (9%)
Alignment                        : Aligned on interleaves
Interleave, duration             : 68 ms (1.62 video frames)
Interleave, preload duration     : 192 ms


Source: DVD (perfect a/v/sync quality,sample included)
This torrent is not seedbox supported,please seed it to the MAX

Note: We need anything you can offer as early 
releases,seedboxes,links,accounts,etc
please contact us on piratepedia[@]msn/gmail.com or our website torentz 
3xforum ro

The Grey (2012) DVDRip XviD-MAX Torrent Free Download
The Grey 2012 DVDSCR XviD - NO WATERMARK - INFERNO/MOVIE.nfo 4.858 KB
The Grey 2012 DVDSCR XviD - NO WATERMARK - INFERNO/Subs[ENG].srt 136.693 KB
The Grey 2012 DVDSCR XviD - NO WATERMARK - INFERNO/The Grey 2012 DVDSCR XviD - NO WATERMARK - INFERNO.avi 1.391 GB
Gathering some info...

Register and log in Isohunt and see no captcha anymore!

4000 symbols left
Hash 795f38422d7145bb211e2f6ee07de5e36e8095d0

Related torrents for "The Grey 2012 DVDSCR XviD - NO WATERMARK - INFERNO.torrent"

Torrent search:

screener 2012