Akcent - Lovers Cry (Official Video 720p HD) ^^@nnY dX^^.MP4

Size 59.203 MB   9 seeders     Added 2012-03-16 01:40:14

Stream torrent
Starting‥ You need BitLord! Get it from BitLord.com
To download or stream you need BitLord. Visit them at BitLord.com
[U][I][CENTER][B]Akcent - Lovers Cry (Official Video 720p HD) ^^@nnY dX^^[/I][/U]


[URL=http://nimga.com/v/nQM9r][IMG]image[/IMG][/URL]

[U][I]General[/I][/U]

Format                                   : MPEG-4
Format profile                           : Base Media / Version 2
Codec ID                                 : mp42
File size                                : 56.5 MiB
Duration                                 : 3mn 54s
Overall bit rate mode                    : Variable
Overall bit rate                         : 2 024 Kbps
Encoded date                             : UTC 2012-02-14 16:01:00
Tagged date                              : UTC 2012-02-14 16:01:00


[U][I]Video[/I][/U]

ID                                       : 1
Format                                   : AVC
Format/Info                              : Advanced Video Codec
Format profile                           : High@L3.1
Format settings, CABAC                   : Yes
Format settings, ReFrames                : 1 frame
Codec ID                                 : avc1
Codec ID/Info                            : Advanced Video Coding
Duration                                 : 3mn 54s
Bit rate                                 : 1 875 Kbps
Maximum bit rate                         : 3 010 Kbps
Width                                    : 1 280 pixels
Height                                   : 720 pixels
Display aspect ratio                     : 16:9
Frame rate mode                          : Constant
Frame rate                               : 25.000 fps
Color space                              : YUV
Chroma subsampling                       : 4:2:0
Bit depth                                : 8 bits
Scan type                                : Progressive
Bits/(Pixel*Frame)                       : 0.081
Stream size                              : 52.3 MiB (93%)


[U][I]Audio[/I][/U]

ID                                       : 2
Format                                   : AAC
Format/Info                              : Advanced Audio Codec
Format profile                           : LC
Codec ID                                 : 40
Duration                                 : 3mn 53s
Bit rate mode                            : Variable
Bit rate                                 : 144 Kbps
Maximum bit rate                         : 170 Kbps
Channel(s)                               : 2 channels
Channel positions                        : Front: L R
Sampling rate                            : 44.1 KHz
Compression mode                         : Lossy
Stream size                              : 4.09 MiB (7%)


[URL=http://nimga.com/v/vmFKK][IMG]image[/IMG][/URL]
[URL=http://nimga.com/v/WCU0D][IMG]image[/IMG][/URL]
[URL=http://nimga.com/v/kYQ0K][IMG]image[/IMG][/URL]
[URL=http://nimga.com/v/lDVjc][IMG]image[/IMG][/URL]


[/B][/CENTER]
Akcent - Lovers Cry (Official Video 720p HD) ^^@nnY dX^^.MP4 59.203 MB
Gathering some info...

Register and log in Isohunt and see no captcha anymore!

4000 symbols left
Hash 6FF5D8808FB61224B36D755B6C7F95E9154F1AF8