Rock!

Rock! (2009)

History, Music

Full description

Papa Roach live at Rock AM Ring 2009

Size 1.236 GB   0 seeders     Added 2012-03-16 02:41:44

Stream torrent
Starting‥ You need BitLord! Get it from BitLord.com
To download or stream you need BitLord. Visit them at BitLord.com
File info:
Duration: 00:41:16.00, start: 0.000000, bitrate: 3992 kb/s
Stream #0:0: Video: mpeg4 (Advanced Simple Profile) (XVID / 0x44495658), yuv 420p, 1280x720 [SAR 1:1 DAR 16:9], 25 tbr, 25 tbn, 25 tbc
Stream #0:1: Audio: ac3 ([0] [0][0] / 0x2000), 48000 Hz, stereo, s16, 384 kb/s
Track list:
1. Between Angels and Insects
2. To be loved
3. Getting away with murder
4. LifeLine
5. Forever
6. Hollywood whore
7. Scars
8. I Almost Told You That I Loved You
9. Last Resort
Enjoy! 
Papa Roach - Rock Am Ring 2009 HDTV XvidHD 720p-NPW.avi 1.236 GB
Gathering some info...

Register and log in Isohunt and see no captcha anymore!

4000 symbols left
Hash C31AB2DA313FC3CE604F4F054FE02C4C3104337C

Related torrents for "Papa Roach live at Rock AM Ring 2009"

Torrent search:

2009