Jason Mraz Ft. Colbie Caillat - Lucky (h264mp4)

Size 89.631 MB   13 seeders     Added 2012-03-16 02:42:37

Stream torrent
Starting‥ You need BitLord! Get it from 1BitLord.com
To download or stream you need BitLord. Visit them at BitLord.com
General
Format : MPEG-4
Format profile : Base Media
Codec ID : isom
File size : 85.5 MiB
Duration : 3mn 22s
Overall bit rate : 3 541 Kbps
Encoded date : UTC 2012-03-13 15:26:15
Tagged date : UTC 2012-03-13 15:26:15
Video
ID : 1
Format : AVC
Format/Info : Advanced Video Codec
Format profile : High@L3.0
Format settings, CABAC : Yes
Format settings, ReFrames : 2 frames
Codec ID : avc1
Codec ID/Info : Advanced Video Coding
Duration : 3mn 22s
Bit rate mode : Variable
Bit rate : 3 474 Kbps
Maximum bit rate : 13.5 Mbps
Width : 720 pixels
Height : 480 pixels
Display aspect ratio : 4:3
Original display aspect ratio : 4:3
Frame rate mode : Constant
Frame rate : 29.970 fps
Standard : NTSC
Color space : YUV
Chroma subsampling : 4:2:0
Bit depth : 8 bits
Scan type : Progressive
Bits/(Pixel*Frame) : 0.335
Stream size : 83.9 MiB (98%)
Audio
ID : 2
Format : AAC
Format/Info : Advanced Audio Codec
Format profile : LC
Codec ID : 40
Duration : 3mn 22s
Bit rate mode : Variable
Bit rate : 57.5 Kbps
Maximum bit rate : 72.3 Kbps
Channel(s) : 2 channels
Channel positions : Front: L R
Sampling rate : 48.0 KHz
Compression mode : Lossy
Stream size : 1.39 MiB (2%)
 
JasonMrazFt.ColbieCaillat-Lucky-musicvideos-hq.net.mp4 89.631 MB
Gathering some info...

Register and log in Isohunt and see no captcha anymore!

4000 symbols left
Hash 4D60D91F3B94BE10BA9A5EFB610CE126A54DB971