Chino Y Nacho Ft. Jay Sean - Bebe Bonita (h264mp4)

Size 175.52 MB   2 seeders     Added 2012-03-16 02:42:49

Stream torrent
Starting‥ You need BitLord! Get it from 1BitLord.com
10
To download or stream you need BitLord. Visit them at BitLord.com
General
Format : MPEG-4
Format profile : Base Media
Codec ID : isom
File size : 167 MiB
Duration : 4mn 33s
Overall bit rate : 5 141 Kbps
Encoded date : UTC 2012-03-15 00:47:15
Tagged date : UTC 2012-03-15 00:47:15
Video
ID : 1
Format : AVC
Format/Info : Advanced Video Codec
Format profile : High@L3.0
Format settings, CABAC : Yes
Format settings, ReFrames : 2 frames
Codec ID : avc1
Codec ID/Info : Advanced Video Coding
Duration : 4mn 33s
Bit rate mode : Variable
Bit rate : 5 258 Kbps
Maximum bit rate : 10.2 Mbps
Width : 640 pixels
Height : 480 pixels
Display aspect ratio : 4:3
Frame rate mode : Constant
Frame rate : 23.976 fps
Color space : YUV
Chroma subsampling : 4:2:0
Bit depth : 8 bits
Scan type : Progressive
Bits/(Pixel*Frame) : 0.714
Stream size : 165 MiB (99%)
Audio
ID : 2
Format : AAC
Format/Info : Advanced Audio Codec
Format profile : LC
Codec ID : 40
Duration : 4mn 33s
Bit rate mode : Variable
Bit rate : 66.15 Kbps
Maximum bit rate : 78.1 Kbps
Channel(s) : 2 channels
Channel positions : Front: L R
Sampling rate : 44.1 KHz
Compression mode : Lossy
Stream size : 2.16 MiB (1%)
 
ChinoYNachoFt.JaySean-BebeBonita-musicvideos-hq.net.mp4 175.52 MB
Gathering some info...

Register and log in Isohunt and see no captcha anymore!

4000 symbols left
Hash 9F0DEFEC52DA4EDA15225BABA4B8F653013FC246