Ek Main Aur Ekk Tu [ Title Full Song ] 1080p Full HD nnY dX MP4

Size 92.256 MB   0 seeders     Added 2012-03-17 02:42:09

Stream torrent
Starting‥ You need BitLord! Get it from BitLord.com
To download or stream you need BitLord. Visit them at BitLord.com
[U][I][COLOR=#33CC00][SIZE=16][FACE=verdana][CENTER][B]Ek Main Aur Ekk Tu 2012 [ Title Full Song ] 1080p Full HD ^^@nnY dX^^[/FACE][/SIZE][/COLOR][/I][/U]\r\n\r\n[URL=http://nimga.com/v/iTBUI][IMG]image[/IMG][/URL]\r\n\r\n\r\nGeneral\r\n\r\nFormat                                   : MPEG-4\r\nFormat profile                           : Base Media / Version 2\r\nCodec ID                                 : mp42\r\nFile size                                : 88.0 MiB\r\nDuration                                 : 2mn 51s\r\nOverall bit rate mode                    : Variable\r\nOverall bit rate                         : 4 302 Kbps\r\nEncoded date                             : UTC 2012-03-14 05:39:03\r\nTagged date                              : UTC 2012-03-14 05:39:03\r\n\r\n\r\nVideo\r\n\r\nID                                       : 1\r\nFormat                                   : AVC\r\nFormat/Info                              : Advanced Video Codec\r\nFormat profile                           : High@L4.0\r\nFormat settings, CABAC                   : Yes\r\nFormat settings, ReFrames                : 1 frame\r\nCodec ID                                 : avc1\r\nCodec ID/Info                            : Advanced Video Coding\r\nDuration                                 : 2mn 51s\r\nBit rate                                 : 4 149 Kbps\r\nMaximum bit rate                         : 12.1 Mbps\r\nWidth                                    : 1 920 pixels\r\nHeight                                   : 1 080 pixels\r\nDisplay aspect ratio                     : 16:9\r\nFrame rate mode                          : Constant\r\nFrame rate                               : 25.000 fps\r\nColor space                              : YUV\r\nChroma subsampling                       : 4:2:0\r\nBit depth                                : 8 bits\r\nScan type                                : Progressive\r\nBits/(Pixel*Frame)                       : 0.080\r\nStream size                              : 84.9 MiB (96%)\r\nTagged date                              : UTC 2012-03-14 05:39:03\r\n\r\nAudio\r\n\r\nID                                       : 2\r\nFormat                                   : AAC\r\nFormat/Info                              : Advanced Audio Codec\r\nFormat profile                           : LC\r\nCodec ID                                 : 40\r\nDuration                                 : 2mn 51s\r\nBit rate mode                            : Variable\r\nBit rate                                 : 151 Kbps\r\nMaximum bit rate                         : 186 Kbps\r\nChannel(s)                               : 2 channels\r\nChannel positions                        : Front: L R\r\nSampling rate                            : 44.1 KHz\r\nCompression mode                         : Lossy\r\nStream size                              : 3.08 MiB (4%)\r\n\r\n[URL=http://nimga.com/v/Oadv7][IMG]image[/IMG][/URL]\r\n[URL=http://nimga.com/v/ocWHP][IMG]image[/IMG][/URL]\r\n[URL=http://nimga.com/v/s1liK][IMG]image[/IMG][/URL]\r\n[URL=http://nimga.com/v/TFJix][IMG]image[/IMG][/URL]\r\n\r\n\r\n\r\n[/B][/CENTER]
Ek Main Aur Ekk Tu [ Title Full Song ] 1080p Full HD ^^@nnY dX^^.MP4 92.256 MB
Gathering some info...

Register and log in Isohunt and see no captcha anymore!

4000 symbols left
Hash 579326B596DD04D75593BBCB4586A11F0E97BE41

Related torrents for "Ek Main Aur Ekk Tu [ Title Full Song ] 1080p Full HD nnY dX MP4"