imdb
rating

6.2
The Maiden and the Wolves

The Maiden and the Wolves (2008)

Drama, Family

Full description
quality   dvdrip x264 hd bd dvdr

The Maiden And The Wolves 2008 720p BDRip XviD ac3 eng-hardsub (avi) X@720

Size 3.969 GB   0 seeders     Added 2012-03-18 01:31:03

Stream torrent
Starting‥ You need BitLord! Get it from 1BitLord.com
10
To download or stream you need BitLord. Visit them at BitLord.com
[img]image[/img]

[img]image[/img]

[img]image[/img]

FILM TITLE: [COLOR=#DD0000]The Maiden and the Wolves (2008)[/COLOR] La jeune fille et les loups (original title)

Genre:   Drama | Family  

Release:  13 February 2008 (Belgium)

Director: Gilles Legrand

Writer: Jean Cosmos (adaptation), Gilles Legrand

Stars:  Laetitia Casta, Jean-Paul Rouve and Stefano Accorsi

Country:  France

Language:  French

Plot:
At the end of World War I, 20 year-old Angle is determined to become the first woman 
veterinarian. Her life is an adventurous one and she becomes the object of ruthless 
rivalry between the man she is supposed to marry

IMDB Rating: 5.9/10 from 264 users

[URL=http://http://www.imdb.com/title/tt0996952/]link description[/URL]

[URL=http://http://www.youtube.com/watch?v=ZLatod-Jqm8]link description[/URL]

[img]image[/img]

[url=http://www.imagezon3.com/images/tS7F0.png][img]image[/img][/url]
[url=http://www.imagezon3.com/images/58Nlz.png][img]image[/img][/url]
[url=http://www.imagezon3.com/images/olFZR.png][img]image[/img][/url]
[url=http://www.imagezon3.com/images/e9NFl.png][img]image[/img][/url]
[url=http://www.imagezon3.com/images/vOwHP.png][img]image[/img][/url]

[img]image[/img]

General
Complete name                            : The Maiden And The Wolves 2008 720p BDRip XviD ac3 eng-hardsub (avi) [X@720]
Format                                   : AVI
Format/Info                              : Audio Video Interleave
Format profile                           : OpenDML
File size                                : 3.66 GiB
Duration                                 : 1h 50mn
Overall bit rate                         : 4746 Kbps
Writing library                          : VirtualDub build 32842/release

Video
ID                                       : 0
Format                                   : MPEG-4 Visual
Format profile                           : Simple@L5
Format settings, BVOP                    : No
Format settings, QPel                    : No
Format settings, GMC                     : No warppoints
Format settings, Matrix                  : Default (H.263)
Codec ID                                 : XVID
Codec ID/Hint                            : XviD
Duration                                 : 1h 50mn
Bit rate                                 : 4096 Kbps
Width                                    : 1280 pixels
Height                                   : 688 pixels
Display aspect ratio                     : 1.860
Frame rate                               : 23.976 fps
Color space                              : YUV
Chroma subsampling                       : 4:2:0
Bit depth                                : 8 bits
Scan type                                : Progressive
Compression mode                         : Lossy
Bits/(Pixel*Frame)                       : 0.194
Stream size                              : 3.16 GiB (86%)
Writing library                          : XviD 64

Audio
ID                                       : 1
Format                                   : AC-3
Format/Info                              : Audio Coding 3
Mode extension                           : CM (complete main)
Codec ID                                 : 2000
Duration                                 : 1h 50mn
Bit rate mode                            : Constant
Bit rate                                 : 640 Kbps
Channel(s)                               : 6 channels
Channel positions                        : Front: L C R, Side: L R, LFE
Sampling rate                            : 48.0 KHz
Bit depth                                : 16 bits
Compression mode                         : Lossy
Stream size                              : 505 MiB (13%)
Alignment                                : Aligned on interleaves
Interleave, duration                     : 42 ms (1.00 video frame)
Interleave, preload duration             : 512 ms


Video Source: La Jeune Fille Et Les Loups 2008 BD Remux HDClub (28GB)

Thanks: (hdclub.org)


I provide a small sample, so please download this to check your 
compatibility first if you are unsure.


I am providing tutorials here :-
http://tutorials4all.freeforums.org/index.php?sid=fb109f91dedb2901c4d0b39625c431f7
This is for opening my mkv encodes, remuxing to Bluray for PS3 or mkv or mp4 with 
additional or selected audio or subtitles which I will now start supplying, so if your
fed up finding the right encode to match your player - DO IT YOURSELF - it's simples.

I allow transfer of my encodes to any site, just give me credit, as I give credit to my sources.  


Hash: 538B704BB52B0E3CDCDEA3501BC3B5B033FF7E65

[CODE]Trackers:
http://inferno.demonoid.me:3414/announce
http://inferno.demonoid.me:3418/announce
http://tracker.torrent.to:2710/announce
udp://tracker.1337x.org:80/announce
udp://tracker.openbittorrent.com:80/announce[/CODE]

[url=http://www.imagezon3.com/images/ER0t4.png][img]image[/img][/url]
000007
(SAMPLE) The Maiden And The Wolves 2008.avi 38.855 MB
The Maiden And The Wolves 2008 720p BDRip XviD ac3 eng-hardsub (avi) [X@720] Post Info.txt 4.98 KB
The Maiden And The Wolves 2008.avi 3.93 GB
Gathering some info...

Register and log in Isohunt and see no captcha anymore!

4000 symbols left
Hash 538B704BB52B0E3CDCDEA3501BC3B5B033FF7E65

Related torrents for "The Maiden And The Wolves 2008 720p BDRip XviD ac3 eng-hardsub (avi) X@720"

Torrent search:

english hd 2008 bd