imdb
rating

6.7
Sennentuntschi

Sennentuntschi (2010)

Horror, Mystery

Full description
quality   dvdrip x264 hd bd

Sennentuntschi 2010 720p BDRip XviD ac3 eng-hardsub (avi) X@720

Size 4.132 GB   0 seeders     Added 2012-03-18 01:33:36

Stream torrent
Starting‥ You need BitLord! Get it from BitLord.com
10
To download or stream you need BitLord. Visit them at BitLord.com
[img]image[/img]

[img]image[/img]

[img]image[/img]

FILM TITLE: [COLOR=#DD0000]Sennentuntschi: Curse of the Alps (2010)[/COLOR]  Sennentuntschi (original title)

Genre:  Horror | Mystery   

Release: 2010

Director: Michael Steiner

Writer: Michael Steiner (screenplay), Stefanie Japp (screenplay)

Stars: Roxane Mesquida, Nicholas Ofczarek and Andrea Zogg

Country:  Switzerland

Language: Swiss German

Plot:
1975, Swiss alps: In a remote mountain village emerges a woman apparently out 
of nothing. Only the village policeman Reusch takes care of the stranger and tries 
to find out, who the mute woman is.

IMDB Rating: 6.7/10 from 711 users 

[URL=http://http://www.imdb.com/title/tt1296077/]link description[/URL]

[URL=http://http://www.youtube.com/watch?v=Vqm-fli7T6Q]link description[/URL]

[img]image[/img]

[url=http://www.imagezon3.com/images/FGvn.png][img]image[/img][/url]
[url=http://www.imagezon3.com/images/OjTS5.png][img]image[/img][/url]
[url=http://www.imagezon3.com/images/jbUK2.png][img]image[/img][/url]
[url=http://www.imagezon3.com/images/VSDe7.png][img]image[/img][/url]
[url=http://www.imagezon3.com/images/stKW.png][img]image[/img][/url]

[img]image[/img]

General
Complete name                            : Sennentuntschi 2010 720p BDRip XviD ac3 eng-hardsub (avi) [X@720]
Format                                   : AVI
Format/Info                              : Audio Video Interleave
Format profile                           : OpenDML
File size                                : 3.81 GiB
Duration                                 : 1h 55mn
Overall bit rate                         : 4748 Kbps
Writing library                          : VirtualDub build 32842/release

Video
ID                                       : 0
Format                                   : MPEG-4 Visual
Format profile                           : Simple@L5
Format settings, BVOP                    : No
Format settings, QPel                    : No
Format settings, GMC                     : No warppoints
Format settings, Matrix                  : Default (H.263)
Codec ID                                 : XVID
Codec ID/Hint                            : XviD
Duration                                 : 1h 55mn
Bit rate                                 : 4098 Kbps
Width                                    : 1280 pixels
Height                                   : 544 pixels
Display aspect ratio                     : 2.35:1
Frame rate                               : 24.000 fps
Color space                              : YUV
Chroma subsampling                       : 4:2:0
Bit depth                                : 8 bits
Scan type                                : Progressive
Compression mode                         : Lossy
Bits/(Pixel*Frame)                       : 0.245
Stream size                              : 3.29 GiB (86%)
Writing library                          : XviD 64

Audio
ID                                       : 1
Format                                   : AC-3
Format/Info                              : Audio Coding 3
Mode extension                           : CM (complete main)
Codec ID                                 : 2000
Duration                                 : 1h 55mn
Bit rate mode                            : Constant
Bit rate                                 : 640 Kbps
Channel(s)                               : 6 channels
Channel positions                        : Front: L C R, Side: L R, LFE
Sampling rate                            : 48.0 KHz
Bit depth                                : 16 bits
Compression mode                         : Lossy
Stream size                              : 527 MiB (13%)
Alignment                                : Aligned on interleaves
Interleave, duration                     : 42 ms (1.00 video frame)
Interleave, preload duration             : 512 ms


Video Source: Sennentuntschi.2010.1080p.Blu-ray.AVC.DTS-HD.HR.5.1 (32.90GB) 

Thanks: leq999 (chdbits.org)


I provide a small sample, so please download this to check your 
compatibility first if you are unsure.


I am providing tutorials here :-
http://tutorials4all.freeforums.org/index.php?sid=fb109f91dedb2901c4d0b39625c431f7
This is for opening my mkv encodes, remuxing to Bluray for PS3 or mkv or mp4 with 
additional or selected audio or subtitles which I will now start supplying, so if your
fed up finding the right encode to match your player - DO IT YOURSELF - it's simples.

I allow transfer of my encodes to any site, just give me credit, as I give credit to my sources. 


Hash: 571AD571ABBEE56DFAA475F83B803244AE3A04E2

[CODE]Trackers:
http://inferno.demonoid.me:3414/announce
http://inferno.demonoid.me:3418/announce
http://tracker.torrent.to:2710/announce
udp://tracker.1337x.org:80/announce
udp://tracker.openbittorrent.com:80/announce[/CODE]

[url=http://www.imagezon3.com/images/ER0t4.png][img]image[/img][/url]
000003
(SAMPLE) Sennentuntschi 2010.avi 36.399 MB
Sennentuntschi 2010 720p BDRip XviD ac3 eng-hardsub (avi) [X@720] Post Info.txt 4.96 KB
Sennentuntschi 2010.avi 4.096 GB
Gathering some info...

Register and log in Isohunt and see no captcha anymore!

4000 symbols left
Hash 571AD571ABBEE56DFAA475F83B803244AE3A04E2

Related torrents for "Sennentuntschi 2010 720p BDRip XviD ac3 eng-hardsub (avi) X@720"

Torrent search:

english hd 2010 bd