Enrique Iglesias Tonight (I m Lovin You) ft.Ludacris

Size 113.73 MB   5 seeders     Added 2012-03-18 01:39:40

Stream torrent
Starting‚Ä• You need BitLord! Get it from BitLord.com
To download or stream you need BitLord. Visit them at BitLord.com
*********************************************************************************
******************Enrique Iglesias Tonight ft.Ludacris.mp4***********************
*********************************************************************************
General
Complete name : Enrique Iglesias Tonight ft.Ludacris.mp4
Format : MPEG-4
Format profile : Base Media / Version 2
Codec ID : mp42
File size : 108 MiB
Duration : 4mn 58s
Overall bit rate mode : Variable
Overall bit rate : 3 047 Kbps
Encoded date : UTC 2010-12-21 16:49:53
Tagged date : UTC 2010-12-21 16:49:53
gsst : 0
gstd : 298583
gssd : BB4572148HH1293165456703693
gshh :

Video
ID : 1
Format : AVC
Format/Info : Advanced Video Codec
Format profile : High@L4.0
Format settings, CABAC : Yes
Format settings, ReFrames : 1 frame
Codec ID : avc1
Codec ID/Info : Advanced Video Coding
Duration : 4mn 58s
Bit rate : 2 917 Kbps
Maximum bit rate : 14.5 Mbps
Width : 1 920 pixels
Height : 1 080 pixels
Display aspect ratio : 16:9
Frame rate mode : Variable
Frame rate : 24.000 fps
Minimum frame rate : 23.810 fps
Maximum frame rate : 24.390 fps
Color space : YUV
Chroma subsampling : 4:2:0
Bit depth : 8 bits
Scan type : Progressive
Bits/(Pixel*Frame) : 0.059
Stream size : 104 MiB (96%)
Tagged date : UTC 2010-12-21 16:50:01
Audio
ID : 2
Format : AAC
Format/Info : Advanced Audio Codec
Format profile : LC
Codec ID : 40
Duration : 4mn 58s
Bit rate mode : Variable
Bit rate : 125 Kbps
Maximum bit rate : 209 Kbps
Channel(s) : 2 channels
Channel positions : Front: L R
Sampling rate : 44.1 KHz
Compression mode : Lossy
Stream size : 4.45 MiB (4%)
Title : (C) 2007 Google Inc. v08.13.2007.
Encoded date : UTC 2010-12-21 16:49:57
Tagged date : UTC 2010-12-21 16:50:01
 
Enrique Iglesias Tonight (I m Lovin You) ft.Ludacris.mp4 113.73 MB
Gathering some info...

Register and log in Isohunt and see no captcha anymore!

4000 symbols left
Hash CD9484BB3227B71194B5EFD8E0E6E23CEBCBDE97

Related torrents for "Enrique Iglesias Tonight (I m Lovin You) ft.Ludacris"